<?xml version="1.0" encoding="UTF-8" standalone="no"?>
<!-- Created with Inkscape (http://www.inkscape.org/) -->

<svg
   width="484.17355mm"
   height="246.41916mm"
   viewBox="0 0 484.17355 246.41916"
   version="1.1"
   id="svg5"
   xml:space="preserve"
   xmlns="http://www.w3.org/2000/svg"
   xmlns:svg="http://www.w3.org/2000/svg"><defs
     id="defs2"><font
       id="samsung_interfaceregular"
       horiz-adv-x="1215"
       horiz-origin-x="0"
       horiz-origin-y="0"
       vert-origin-x="512"
       vert-origin-y="768"
       vert-adv-y="1024"><font-face
         units-per-em="2048"
         ascent="1755"
         descent="-293"
         id="font-face3387" /><missing-glyph
         horiz-adv-x="449"
         id="missing-glyph3389" /><glyph
         unicode="ﬃ"
         horiz-adv-x="1736"
         d="M45 933v142h160v79q0 103 23.5 175t66.5 117.5t101.5 65.5t130.5 20q86 0 146 -17t105 -42l-53 -132q-39 17 -84.5 32t-104.5 15q-39 0 -68 -9t-49.5 -35t-31.5 -72.5t-11 -119.5v-77h489v79q0 97 30.5 169t81 118t118.5 68.5t141 22.5q125 0 198 -35t122 -78l-83 -114 q-39 31 -97 60.5t-137 29.5q-95 0 -149 -54.5t-54 -188.5v-77h271l-25 -142h-244v-933h-176v933h-484v-933h-176v933h-157zM1436 0v1059l172 31v-1090h-172z"
         id="glyph3391" /><glyph
         unicode="ﬄ"
         horiz-adv-x="1828"
         d="M45 933v142h160v79q0 103 23.5 175t66.5 117.5t101.5 65.5t130.5 20q86 0 146 -17t105 -42l-53 -132q-39 17 -84.5 32t-104.5 15q-39 0 -68 -9t-49.5 -35t-31.5 -72.5t-11 -119.5v-77h486v38q0 110 36.5 190t102 131t154 74.5t195.5 23.5q101 0 190 -20t134 -39v-1473 h-176v1358q-27 12 -71 18.5t-92 6.5q-60 0 -114 -12.5t-94.5 -42.5t-65.5 -84.5t-25 -136.5v-32h271l-25 -142h-244v-933h-176v933h-484v-933h-176v933h-157z"
         id="glyph3393" /><glyph
         unicode=""
         horiz-adv-x="449"
         id="glyph3395" /><glyph
         horiz-adv-x="0"
         id="glyph3397" /><glyph
         horiz-adv-x="0"
         id="glyph3399" /><glyph
         unicode=" "
         horiz-adv-x="449"
         id="glyph3401" /><glyph
         unicode="	"
         horiz-adv-x="449"
         id="glyph3403" /><glyph
         unicode=" "
         horiz-adv-x="449"
         id="glyph3405" /><glyph
         unicode="!"
         horiz-adv-x="445"
         d="M101 110q0 56 35.5 95.5t86.5 39.5q52 0 86.5 -39t34.5 -96q0 -56 -34.5 -95.5t-86.5 -39.5q-51 0 -86.5 39.5t-35.5 95.5zM140 503v1000h171v-1000h-171z"
         id="glyph3407" /><glyph
         unicode="&quot;"
         horiz-adv-x="709"
         d="M112 971v532h159v-532h-159zM439 971v532h159v-532h-159z"
         id="glyph3409" /><glyph
         unicode="#"
         horiz-adv-x="1333"
         d="M0 546v152h378v273h-378v151h378v381h153v-381h271v381h153v-381h378v-151h-378v-273h378v-152h-378v-379h-153v379h-271v-379h-153v379h-378zM531 698h271v273h-271v-273z"
         id="glyph3411" /><glyph
         unicode="$"
         d="M88 226l138 83q90 -178 305 -185v609q-79 34 -149.5 72t-125 88.5t-85.5 116t-31 153.5q0 83 31 149t84.5 113.5t124.5 73.5t151 31v297h144v-297q155 -11 255 -82.5t147 -165.5l-135 -72q-43 73 -103.5 115t-163.5 53v-518q104 -49 182 -95.5t129.5 -98t76.5 -116 t25 -148.5q0 -95 -31.5 -171t-87 -130t-131 -86.5t-163.5 -42.5v-303h-144v303q-69 0 -136.5 18.5t-127.5 52.5t-106.5 80t-72.5 103zM311 1174q0 -54 17.5 -96t48.5 -72t70 -54t84 -44v472q-94 -6 -157 -59t-63 -147zM675 122q97 9 167 77.5t70 189.5q0 102 -60.5 167.5 t-176.5 123.5v-558z"
         id="glyph3413" /><glyph
         unicode="%"
         horiz-adv-x="1576"
         d="M73 1129q0 79 18.5 149t58 122.5t97.5 83t136 30.5q77 0 135 -32.5t97.5 -86.5t59 -124t19.5 -142q0 -84 -20.5 -154t-59 -121.5t-96.5 -80.5t-135 -29q-155 0 -232.5 107.5t-77.5 277.5zM212 1131q0 -54 10 -103.5t30.5 -88t53 -62t77.5 -23.5t78 23.5t52.5 62t30 88 t10.5 103.5q0 51 -10.5 101t-30 88t-52.5 61t-78 23t-77.5 -23t-53 -61t-30.5 -88t-10 -101zM320 45l811 1471l126 -61l-810 -1470zM884 377q0 79 18.5 149t58 122.5t97.5 83t136 30.5q77 0 135 -32.5t97.5 -86.5t59 -124t19.5 -142q0 -84 -20.5 -154t-59 -121.5 t-96.5 -80.5t-135 -29q-155 0 -232.5 107.5t-77.5 277.5zM1023 379q0 -54 10 -103.5t30.5 -88t53 -62t77.5 -23.5t78 23.5t52.5 62t30 88t10.5 103.5q0 51 -10.5 101t-30 88t-52.5 61t-78 23t-77.5 -23t-53 -61t-30.5 -88t-10 -101z"
         id="glyph3415" /><glyph
         unicode="&amp;"
         horiz-adv-x="1380"
         d="M73 374q0 86 23.5 152.5t66 118t101 92.5t125.5 74l54 27l-47 58q-36 43 -58 80.5t-35 71t-17 69t-4 74.5q0 63 25.5 122t73 103t116 71t154.5 27q97 0 164.5 -28t110.5 -74.5t61.5 -103.5t18.5 -114q0 -115 -72 -199.5t-231 -167.5l-32 -16l327 -399q38 59 73.5 124.5 t65.5 136.5l131 -63q-38 -81 -81 -162t-95 -153l243 -295h-204l-142 172q-86 -88 -200 -142.5t-262 -54.5q-124 0 -210.5 35t-140.5 91t-78.5 128t-24.5 145zM243 385q0 -45 17 -92.5t54 -85.5t94.5 -62.5t137.5 -24.5q107 0 194 43.5t159 118.5l-372 455l-43 -23 q-79 -41 -126 -77.5t-71.5 -76.5t-34 -83t-9.5 -92zM434 1196q0 -65 28.5 -113.5t80.5 -113.5l45 -57l31 16q101 52 168 108t67 146q0 80 -47.5 138t-155.5 58q-105 0 -161 -51.5t-56 -130.5z"
         id="glyph3417" /><glyph
         unicode="'"
         horiz-adv-x="382"
         d="M112 971v532h159v-532h-159z"
         id="glyph3419" /><glyph
         unicode="("
         horiz-adv-x="594"
         d="M99 768q0 165 34 302.5t94.5 247.5t145.5 191.5t184 132.5l51 -110q-72 -54 -132.5 -126.5t-104.5 -166t-69 -210.5t-25 -261q0 -288 93.5 -473t237.5 -293l-51 -110q-99 54 -184 135t-145.5 191.5t-94.5 247t-34 302.5z"
         id="glyph3421" /><glyph
         unicode=")"
         horiz-adv-x="594"
         d="M-13 2q144 108 237.5 295t93.5 471q0 144 -25 261t-69 210.5t-105 165.5t-132 127l51 110q100 -51 184.5 -132.5t145 -191.5t94.5 -247.5t34 -302.5q0 -167 -34 -303t-94.5 -246.5t-145 -191.5t-184.5 -135z"
         id="glyph3423" /><glyph
         unicode="*"
         horiz-adv-x="957"
         d="M79 1016l286 190l-286 195l69 113l264 -181v301h129v-301l267 178l71 -107l-288 -196l286 -196l-64 -118l-272 185v-316h-129v316l-270 -183z"
         id="glyph3425" /><glyph
         unicode="+"
         d="M77 509v158h452v493h159v-493h452v-158h-452v-496h-159v496h-452z"
         id="glyph3427" /><glyph
         unicode=","
         horiz-adv-x="458"
         d="M30 -148q40 10 91 45.5t68 74.5q-27 12 -51 47t-24 95q0 56 34.5 99t85.5 43q54 0 89.5 -43.5t35.5 -115.5q0 -56 -29 -106.5t-73.5 -93.5t-99 -73.5t-107.5 -46.5z"
         id="glyph3429" /><glyph
         unicode="-"
         horiz-adv-x="690"
         d="M101 509v158h490v-158h-490z"
         id="glyph3431" /><glyph
         unicode="."
         horiz-adv-x="445"
         d="M101 110q0 56 35.5 95.5t86.5 39.5q52 0 86.5 -39t34.5 -96q0 -56 -34.5 -95.5t-86.5 -39.5q-51 0 -86.5 39.5t-35.5 95.5z"
         id="glyph3433" /><glyph
         unicode="/"
         horiz-adv-x="1081"
         d="M0 30l948 1677l133 -73l-943 -1686z"
         id="glyph3435" /><glyph
         unicode="0"
         d="M73 739q0 144 31 281.5t97.5 244.5t167 172.5t239.5 65.5q138 0 239 -65.5t167.5 -172.5t98 -244.5t31.5 -281.5t-32.5 -281.5t-98 -244.5t-166.5 -172.5t-239 -65.5q-139 0 -239.5 65.5t-167 172.5t-97.5 244.5t-31 281.5zM262 741q0 -112 19.5 -220.5t61.5 -194 t107.5 -137t157.5 -51.5q90 0 155.5 51.5t107 137t62 194t20.5 220.5q0 113 -19.5 220t-62 191t-108 136.5t-155.5 52.5q-92 0 -157.5 -52.5t-108.5 -136.5t-61.5 -191t-18.5 -220z"
         id="glyph3437" /><glyph
         unicode="1"
         d="M178 1180l450 297h158v-1477h-182v1273l-338 -216z"
         id="glyph3439" /><glyph
         unicode="2"
         d="M122 1201q79 144 198 223t290 79q97 0 174.5 -29.5t133.5 -82t86 -126.5t30 -161q0 -146 -71 -273.5t-172 -251.5q-90 -113 -183.5 -218t-188.5 -208h653v-153h-903v106q125 142 237 269.5t207 248.5q56 69 97.5 128t71 113.5t44 106t14.5 109.5q0 129 -66.5 194.5 t-173.5 65.5q-205 0 -336 -223z"
         id="glyph3441" /><glyph
         unicode="3"
         d="M86 243l142 88q58 -103 145 -148t177 -45q60 0 117.5 17t101.5 50.5t70 85t26 124.5q0 69 -27 122.5t-71 88t-103.5 52.5t-122.5 23v135q56 4 110 22.5t97 51t69 79.5t26 110q0 117 -71 179.5t-200 62.5q-101 0 -178.5 -52.5t-120.5 -136.5l-142 87q65 128 188.5 196 t265.5 68q95 0 177.5 -27t140.5 -77.5t92.5 -123t34.5 -162.5q0 -131 -62.5 -210.5t-156.5 -126.5q49 -20 93 -50t78 -71.5t53 -100t19 -137.5q0 -108 -42.5 -190.5t-112.5 -137.5t-160 -84.5t-185 -29.5q-69 0 -137 16t-129.5 50t-113.5 84.5t-88 117.5z"
         id="glyph3443" /><glyph
         unicode="4"
         d="M88 462v160l739 855h115v-864h162v-151h-162v-462h-170v462h-684zM279 613h493v563z"
         id="glyph3445" /><glyph
         unicode="5"
         d="M144 207l140 90q92 -159 309 -159q142 0 230.5 81.5t88.5 240.5q0 176 -138 266.5t-391 90.5h-164v660h800v-153h-632v-353h19q142 0 265.5 -25.5t215 -86.5t144.5 -159t53 -242q0 -120 -39 -210.5t-106 -151t-157 -91t-191 -30.5q-142 0 -262 57.5t-185 174.5z"
         id="glyph3447" /><glyph
         unicode="6"
         d="M153 561q0 183 53.5 342t153.5 282.5t240.5 205.5t316.5 112l36 -142q-97 -18 -187.5 -61t-165.5 -105t-131.5 -141.5t-87.5 -172.5q58 39 128 61.5t149 22.5q105 0 187.5 -39.5t139 -108.5t85.5 -160.5t29 -192.5t-31.5 -190t-91 -155.5t-145 -105t-191.5 -38.5 q-128 0 -220.5 50t-151.5 130.5t-87 187t-28 218.5zM338 561q0 -73 14.5 -149t49.5 -139.5t93.5 -103.5t146.5 -40q70 0 122.5 27t88 73t52.5 105.5t17 125.5q0 69 -19.5 133.5t-57 111.5t-93.5 75t-130 28q-73 0 -141.5 -22.5t-129.5 -67.5q-13 -79 -13 -157z"
         id="glyph3449" /><glyph
         unicode="7"
         d="M86 1324v153h1029v-121l-565 -1356h-189l549 1324h-824z"
         id="glyph3451" /><glyph
         unicode="8"
         d="M135 408q0 117 54 211.5t162 150.5q-88 58 -141 146t-53 191q0 101 39.5 175t104 122.5t144.5 73.5t163 25q84 0 163.5 -24t143 -72.5t101.5 -120.5t38 -168q0 -108 -50.5 -195t-136.5 -151q103 -52 157.5 -149.5t54.5 -212.5q0 -110 -40.5 -192.5t-107 -136t-151 -80 t-172.5 -26.5t-172.5 27.5t-151.5 81.5t-108 134.5t-41 189.5zM309 410q0 -72 27 -124t70 -86.5t97 -51.5t107 -17q54 0 107 15.5t95 49.5t67.5 85.5t25.5 124.5q0 69 -25.5 123t-68.5 91.5t-97 56.5t-108 19t-106.5 -19t-95.5 -56.5t-69 -90.5t-26 -120zM333 1107 q0 -65 24 -115t63.5 -82.5t88 -49.5t97.5 -17q50 0 99.5 17t88 50.5t63 82.5t24.5 114q0 62 -23.5 109.5t-63 76.5t-88 44t-98.5 15q-49 0 -98.5 -15t-88 -45t-63.5 -76.5t-25 -108.5z"
         id="glyph3453" /><glyph
         unicode="9"
         d="M142 1012q0 103 31.5 192.5t91 155.5t144.5 104.5t191 38.5q124 0 216 -49.5t151.5 -133.5t89 -189.5t29.5 -218.5q0 -180 -56 -337.5t-159 -281.5t-247 -206.5t-320 -111.5l-36 142q102 22 194 64t167.5 101.5t134.5 136.5t92 169q-58 -38 -126 -59.5t-149 -21.5 q-106 0 -186.5 42t-137.5 113t-86 160.5t-29 189.5zM314 1016q0 -72 18.5 -136.5t56 -114t94.5 -78.5t134 -29q73 0 141.5 24.5t127.5 69.5q13 77 13 162q0 73 -13.5 149.5t-48.5 140.5t-93.5 105t-146.5 41q-72 0 -125 -28t-88 -75.5t-52.5 -107.5t-17.5 -123z"
         id="glyph3455" /><glyph
         unicode=":"
         horiz-adv-x="445"
         d="M101 110q0 56 35.5 95.5t86.5 39.5q52 0 86.5 -39t34.5 -96q0 -56 -34.5 -95.5t-86.5 -39.5q-51 0 -86.5 39.5t-35.5 95.5zM101 937q0 56 35.5 95.5t86.5 39.5q52 0 86.5 -39t34.5 -96q0 -56 -34.5 -95.5t-86.5 -39.5q-51 0 -86.5 39.5t-35.5 95.5z"
         id="glyph3457" /><glyph
         unicode=";"
         horiz-adv-x="458"
         d="M30 -148q40 10 91 45.5t68 74.5q-27 12 -51 47t-24 95q0 56 34.5 99t85.5 43q54 0 89.5 -43.5t35.5 -115.5q0 -56 -29 -106.5t-73.5 -93.5t-99 -73.5t-107.5 -46.5zM116 941q0 56 35.5 96t86.5 40q52 0 86.5 -40t34.5 -96q0 -58 -34.5 -97.5t-86.5 -39.5 q-51 0 -86.5 39.5t-35.5 97.5z"
         id="glyph3459" /><glyph
         unicode="&lt;"
         d="M124 529v131l925 356l60 -156l-699 -260l727 -282l-62 -163z"
         id="glyph3461" /><glyph
         unicode="="
         d="M77 254v158h1063v-158h-1063zM77 761v156h1063v-156h-1063z"
         id="glyph3463" /><glyph
         unicode="&gt;"
         d="M79 318l727 282l-698 260l59 156l925 -356v-131l-950 -374z"
         id="glyph3465" /><glyph
         unicode="?"
         horiz-adv-x="877"
         d="M-4 1253q29 47 69.5 94.5t93.5 84t121.5 60.5t153.5 24q205 0 307 -104.5t102 -287.5q0 -101 -47.5 -183.5t-115.5 -154.5q-52 -53 -86.5 -94t-55 -72.5t-29.5 -61t-9 -62.5v-81h-167v94q0 106 52 182.5t115 142.5q39 40 69.5 75t51.5 69t32 72t11 85q0 115 -60.5 176 t-175.5 61q-101 0 -177.5 -59.5t-136.5 -145.5zM295 110q0 56 35 95.5t87 39.5t86.5 -39t34.5 -96q0 -56 -34.5 -95.5t-86.5 -39.5t-87 39.5t-35 95.5z"
         id="glyph3467" /><glyph
         unicode="@"
         horiz-adv-x="1864"
         d="M67 410q0 224 77 400.5t209.5 300t309.5 190t380 66.5q182 0 323 -50.5t236.5 -143t145 -220.5t49.5 -284q0 -155 -48 -280t-124.5 -213t-172.5 -135.5t-190 -47.5q-59 0 -108.5 19.5t-85.5 77.5q-54 -45 -121.5 -71t-144.5 -26q-151 0 -229.5 99t-78.5 257 q0 116 40 223.5t118 190t192.5 131t264.5 48.5q112 0 179.5 -10t119.5 -24l-187 -633q-11 -45 -11 -70q0 -75 92 -74q56 0 115.5 38t108.5 106.5t79.5 164.5t30.5 209q0 127 -37.5 231t-114 180.5t-190.5 118.5t-267 42q-171 0 -315 -58.5t-248.5 -165.5t-163.5 -256.5 t-59 -332.5q0 -174 54 -296.5t145 -200.5t210.5 -114t252.5 -36q138 0 292.5 35t279.5 125l81 -123q-107 -75 -274 -131t-379 -56q-189 0 -343 52.5t-263.5 155t-169.5 251.5t-60 340zM658 346q0 -103 46 -159t150 -56q54 0 103 19t88 48q2 13 8 40.5t17 70.5l142 484 q-20 5 -56 9t-81 4q-95 0 -172.5 -32.5t-132 -92t-83.5 -145t-29 -190.5z"
         id="glyph3469" /><glyph
         unicode="A"
         horiz-adv-x="1279"
         d="M0 0l579 1503h111l589 -1503h-195l-179 464h-544l-172 -464h-189zM419 624h428l-219 575z"
         id="glyph3471" /><glyph
         unicode="B"
         horiz-adv-x="1249"
         d="M183 0v1503h447q232 0 354.5 -103.5t122.5 -279.5q0 -144 -86 -222t-221 -100q67 -7 134.5 -28.5t123 -66.5t90 -114t34.5 -170q0 -97 -34.5 -174.5t-95.5 -132t-144 -83.5t-183 -29h-542zM363 155h347q128 0 204.5 64.5t76.5 199.5q0 144 -93.5 217.5t-275.5 73.5h-259 v-555zM363 865h252q142 0 222 66.5t80 188.5q0 110 -70.5 169t-208.5 59h-275v-483z"
         id="glyph3473" /><glyph
         unicode="C"
         horiz-adv-x="1281"
         d="M110 746q0 209 52 359t136.5 244.5t191.5 138.5t217 44q172 0 304.5 -83.5t198.5 -225.5l-146 -88q-20 41 -53 83t-77 74t-97 53.5t-114 21.5q-198 0 -310 -161t-112 -462q0 -147 34.5 -260.5t92.5 -191.5t138.5 -117.5t172.5 -39.5q65 0 115.5 18.5t92.5 48.5t74.5 72 t59.5 87l138 -88q-30 -54 -72.5 -108.5t-101 -97t-135 -70t-173.5 -27.5q-133 0 -247 44t-198.5 137.5t-133 240t-48.5 354.5z"
         id="glyph3475" /><glyph
         unicode="D"
         horiz-adv-x="1408"
         d="M183 0v1503h387q88 0 182.5 -15t175.5 -52q82 -39 149 -99t115.5 -143t77 -188t28.5 -234q0 -157 -36.5 -282t-100.5 -217.5t-151.5 -153.5t-189.5 -89q-52 -16 -123 -23t-127 -7h-387zM363 155h185q49 0 112 5t116 27q67 27 128 74.5t105.5 117.5t71 164t26.5 220 q0 196 -60 316t-164 187q-65 43 -154 62.5t-172 19.5h-194v-1193z"
         id="glyph3477" /><glyph
         unicode="E"
         horiz-adv-x="1157"
         d="M183 0v1503h876v-155h-696v-483h497v-155h-499v-555h752v-155h-930z"
         id="glyph3479" /><glyph
         unicode="F"
         horiz-adv-x="1038"
         d="M183 0v1503h851v-155h-671v-508h495v-155h-497v-685h-178z"
         id="glyph3481" /><glyph
         unicode="G"
         horiz-adv-x="1344"
         d="M110 746q0 212 51 360.5t135.5 243t194 138.5t225.5 44q101 0 178 -20t135.5 -58.5t101.5 -92.5t77 -122l-144 -87q-52 101 -132.5 160.5t-215.5 59.5q-79 0 -154.5 -36t-132.5 -113t-92.5 -196t-35.5 -283q0 -147 36.5 -262t98.5 -194t144 -119t175 -40q101 0 175 12 t122 28v392h-248v157h428v-662q-34 -13 -84.5 -28t-112 -28t-134 -21.5t-149.5 -8.5q-133 0 -249 44t-203.5 137.5t-138.5 240t-51 354.5z"
         id="glyph3483" /><glyph
         unicode="H"
         horiz-adv-x="1475"
         d="M183 0v1503h180v-652h752v652h179v-1503h-179v692h-752v-692h-180z"
         id="glyph3485" /><glyph
         unicode="I"
         horiz-adv-x="544"
         d="M183 0v1503h180v-1503h-180z"
         id="glyph3487" /><glyph
         unicode="J"
         horiz-adv-x="537"
         d="M-88 -151q135 22 206 79t71 164v1411h181v-1406q0 -185 -114 -280.5t-312 -117.5z"
         id="glyph3489" /><glyph
         unicode="K"
         horiz-adv-x="1265"
         d="M183 0v1503h180v-660l647 660h213l-578 -591l610 -912h-217l-520 782l-155 -160v-622h-180z"
         id="glyph3491" /><glyph
         unicode="L"
         horiz-adv-x="1103"
         d="M183 0v1503h180v-1348h696v-155h-876z"
         id="glyph3493" /><glyph
         unicode="M"
         horiz-adv-x="1673"
         d="M183 0v1503h211l438 -1161l450 1161h210v-1503h-174v1146l-467 -1171h-36l-456 1169v-1144h-176z"
         id="glyph3495" /><glyph
         unicode="N"
         horiz-adv-x="1481"
         d="M183 0v1503h182l757 -1120v1120h178v-1503h-133l-806 1191v-1191h-178z"
         id="glyph3497" /><glyph
         unicode="O"
         horiz-adv-x="1488"
         d="M110 752q0 147 37.5 286.5t115 250t197 177t286.5 66.5q165 0 283.5 -66.5t197 -177t115 -250t36.5 -286.5q0 -146 -36.5 -287t-115 -250t-197.5 -177t-283 -68q-167 0 -286.5 68t-197 177t-115 250t-37.5 287zM299 752q0 -116 27.5 -228t82.5 -200t138 -140.5t199 -52.5 q114 0 197.5 52.5t137.5 140.5t81 200t27 228q0 115 -26 226.5t-79.5 199.5t-138.5 141t-199 53q-115 0 -199.5 -53t-140 -141t-81.5 -199.5t-26 -226.5z"
         id="glyph3499" /><glyph
         unicode="P"
         horiz-adv-x="1225"
         d="M183 0v1503h468q260 0 384.5 -115t124.5 -341q0 -219 -132 -331t-383 -112h-282v-604h-180zM363 761h295q137 0 223 67.5t86 223.5q0 155 -81.5 225.5t-229.5 70.5h-293v-587z"
         id="glyph3501" /><glyph
         unicode="Q"
         horiz-adv-x="1488"
         d="M110 752q0 147 37.5 286.5t115 250t197 177t286.5 66.5q165 0 283.5 -66.5t197 -177t115 -250t36.5 -286.5q0 -135 -31 -264t-95.5 -235.5t-166 -179.5t-238.5 -95q25 -65 100.5 -98t219.5 -42l-21 -149q-103 6 -181.5 23t-138.5 50t-104 85t-77 131q-140 20 -240.5 93 t-165.5 180.5t-97 236.5t-32 264zM299 752q0 -116 27.5 -228t82.5 -200t138 -140.5t199 -52.5q114 0 197.5 52.5t137.5 140.5t81 200t27 228q0 115 -26 226.5t-79.5 199.5t-138.5 141t-199 53q-115 0 -199.5 -53t-140 -141t-81.5 -199.5t-26 -226.5z"
         id="glyph3503" /><glyph
         unicode="R"
         horiz-adv-x="1240"
         d="M183 0v1503h481q252 0 372 -113t120 -298q0 -99 -28.5 -172t-79 -124.5t-119.5 -82t-147 -44.5l409 -669h-204l-406 658h-218v-658h-180zM363 813h290q314 0 314 279q0 129 -77 192.5t-221 63.5h-306v-535z"
         id="glyph3505" /><glyph
         unicode="S"
         horiz-adv-x="1161"
         d="M67 217l142 105q65 -94 171 -141.5t217 -47.5q59 0 111.5 14.5t92 45t63.5 80t24 116.5q0 63 -29.5 112t-79 87t-112.5 69t-131 59q-77 34 -152 69t-134 85t-96 114.5t-37 159.5q0 97 39.5 170.5t106 122t151 72t177.5 23.5q142 0 272 -56.5t212 -177.5l-138 -109 q-58 81 -149.5 132t-199.5 51q-135 0 -207 -58.5t-72 -159.5q0 -56 26 -95.5t72 -71.5t111 -62.5t146 -66.5q77 -36 151.5 -74t132.5 -88.5t94.5 -120.5t36.5 -167q0 -114 -39.5 -198t-107 -138t-156 -79t-191.5 -25q-77 0 -151.5 17t-143.5 48.5t-126.5 77.5t-96.5 106z "
         id="glyph3507" /><glyph
         unicode="T"
         horiz-adv-x="1150"
         d="M20 1348v155h1111v-155h-467v-1348h-178v1348h-466z"
         id="glyph3509" /><glyph
         unicode="U"
         horiz-adv-x="1457"
         d="M174 503v1000h180v-967q0 -192 99 -298.5t275 -106.5q178 0 277 103.5t99 301.5v967h180v-1000q0 -133 -46.5 -232t-124 -166t-178.5 -101t-212 -34q-117 0 -217 34t-175 101t-116 166t-41 232z"
         id="glyph3511" /><glyph
         unicode="V"
         horiz-adv-x="1249"
         d="M0 1503h198l434 -1144l427 1144h192l-571 -1503h-106z"
         id="glyph3513" /><glyph
         unicode="W"
         horiz-adv-x="1691"
         d="M0 1503h183l277 -1062l338 1062h94l342 -1062l273 1062h185l-379 -1503h-107l-361 1120l-359 -1120h-108z"
         id="glyph3515" /><glyph
         unicode="X"
         horiz-adv-x="1161"
         d="M0 0l466 770l-425 733h219l321 -591l329 591h208l-428 -719l473 -784h-226l-361 645l-369 -645h-207z"
         id="glyph3517" /><glyph
         unicode="Y"
         horiz-adv-x="1223"
         d="M0 1503h205l401 -609l421 609h196l-531 -780v-723h-180v720z"
         id="glyph3519" /><glyph
         unicode="Z"
         horiz-adv-x="1204"
         d="M86 0v167l847 1181h-809v155h973v-194l-824 -1154h858v-155h-1045z"
         id="glyph3521" /><glyph
         unicode="["
         horiz-adv-x="499"
         d="M157 -322v1980h334v-142h-171v-1694h171v-144h-334z"
         id="glyph3523" /><glyph
         unicode="\"
         horiz-adv-x="1064"
         d="M0 1634l146 81l920 -1648l-142 -92z"
         id="glyph3525" /><glyph
         unicode="]"
         horiz-adv-x="499"
         d="M9 -178h171v1694h-171v142h333v-1980h-333v144z"
         id="glyph3527" /><glyph
         unicode="^"
         horiz-adv-x="1130"
         d="M138 716l358 791h130l367 -759l-153 -65l-281 579l-262 -604z"
         id="glyph3529" /><glyph
         unicode="_"
         horiz-adv-x="1126"
         d="M0 -361h1126v-135h-1126v135z"
         id="glyph3531" /><glyph
         unicode="`"
         horiz-adv-x="995"
         d="M252 1505l115 117l377 -313l-82 -84z"
         id="glyph3533" /><glyph
         unicode="a"
         horiz-adv-x="1058"
         d="M86 311q0 115 61.5 190t156 118t209.5 61t224 18v14q0 135 -57.5 194t-165.5 59q-75 0 -136.5 -33t-104.5 -87l-122 86q65 88 154 129t224 41q181 0 281 -92t100 -308v-701h-158l-8 92q-56 -56 -129.5 -86.5t-161.5 -30.5q-69 0 -136 21.5t-118 63t-82 105t-31 146.5z M262 309q0 -52 19.5 -88t50.5 -59.5t68 -34t73 -10.5q79 0 145.5 33t118.5 78v333q-75 -2 -158 -11t-154 -35.5t-117 -76t-46 -129.5z"
         id="glyph3535" /><glyph
         unicode="b"
         horiz-adv-x="1180"
         d="M155 56v1447l174 29v-491q69 31 133.5 44.5t128.5 13.5q103 0 193 -37t154 -108t101.5 -176t37.5 -242q0 -129 -40.5 -232.5t-113 -176.5t-170 -112.5t-212.5 -39.5q-124 0 -222 26.5t-164 54.5zM329 153q43 -18 92.5 -29.5t94.5 -11.5q90 0 163 31t124 87t78 134.5 t27 176.5q0 97 -27 174.5t-74.5 131.5t-111 82t-136.5 28q-54 0 -113 -14.5t-117 -52.5v-737z"
         id="glyph3537" /><glyph
         unicode="c"
         horiz-adv-x="1067"
         d="M103 534q0 150 43 258.5t113 177t158 100t176 31.5q90 0 158.5 -27t117 -67t79 -85t43.5 -82l-129 -81q-47 108 -119 155t-150 47q-61 0 -117.5 -28t-101.5 -81.5t-72 -132.5t-27 -181q0 -101 27 -180t73 -132.5t108.5 -82.5t131.5 -29q79 0 152 45.5t121 147.5l122 -77 q-63 -131 -172.5 -193t-231.5 -62q-94 0 -185.5 34t-161.5 104t-113 174.5t-43 246.5z"
         id="glyph3539" /><glyph
         unicode="d"
         horiz-adv-x="1180"
         d="M103 548q0 103 33 203t97 177.5t161 125t225 47.5q82 0 140 -12t99 -27v441l174 29v-1532h-160l-14 88q-58 -60 -127 -86.5t-150 -26.5q-115 0 -204 44t-149.5 121t-92.5 181.5t-32 226.5zM275 538q0 -90 20.5 -167.5t61.5 -134t103 -89.5t148 -33q67 0 132.5 29 t117.5 93v674q-13 8 -36.5 17.5t-53 17.5t-61.5 12t-60 4q-95 0 -165 -35.5t-116 -95.5t-68.5 -136.5t-22.5 -155.5z"
         id="glyph3541" /><glyph
         unicode="e"
         horiz-adv-x="1144"
         d="M103 543q0 129 35.5 231.5t97 175.5t150.5 112t197 39q120 0 209 -40t147.5 -113.5t88 -176t29.5 -223.5h-782q0 -205 92.5 -319.5t268.5 -114.5q101 0 171 50t113 122l114 -77q-58 -101 -151.5 -167.5t-252.5 -66.5q-122 0 -218 37.5t-165 108t-106.5 177t-37.5 245.5z M290 685h570q-2 70 -27 122.5t-62.5 88t-88 52.5t-99.5 17q-108 0 -185.5 -64.5t-107.5 -215.5z"
         id="glyph3543" /><glyph
         unicode="f"
         horiz-adv-x="660"
         d="M45 933v142h160v79q0 103 23.5 175t66.5 117.5t101.5 65.5t130.5 20q86 0 146 -17t105 -42l-53 -132q-39 17 -84.5 32t-104.5 15q-39 0 -68 -9t-49.5 -35t-31.5 -72.5t-11 -119.5v-77h271l-25 -142h-244v-933h-176v933h-157z"
         id="glyph3545" /><glyph
         unicode="g"
         horiz-adv-x="1186"
         d="M103 546q0 126 42 228.5t116.5 175.5t178 112t229.5 39q86 0 187 -8.5t176 -20.5v-1047q0 -254 -118.5 -367t-339.5 -113q-142 0 -249.5 41.5t-182.5 140.5l122 97q99 -140 310 -140q149 0 216.5 75.5t67.5 210.5v77q-52 -27 -118.5 -43.5t-139.5 -16.5q-104 0 -194 38 t-158 110t-106.5 176t-38.5 235zM277 541q0 -88 23.5 -164t70 -129.5t114 -85t153.5 -31.5q63 0 121 20.5t99 44.5v750q-32 7 -81 11t-106 4q-73 0 -143 -25.5t-126 -78.5t-90.5 -131.5t-34.5 -184.5z"
         id="glyph3547" /><glyph
         unicode="h"
         horiz-adv-x="1213"
         d="M155 0v1503l174 29v-543q65 47 148.5 79.5t186.5 32.5q219 0 310.5 -110t91.5 -322v-669h-176v671q0 149 -61 219.5t-197 70.5q-85 0 -165 -39t-138 -82v-840h-174z"
         id="glyph3549" /><glyph
         unicode="i"
         horiz-adv-x="484"
         d="M129 1374q0 52 33.5 90.5t80.5 38.5t81.5 -38.5t34.5 -90.5q0 -54 -34.5 -91t-81.5 -37t-80.5 37t-33.5 91zM155 0v1059l174 31v-1090h-174z"
         id="glyph3551" /><glyph
         unicode="j"
         horiz-adv-x="477"
         d="M-9 -320q41 30 71 60t49.5 66.5t28 82.5t8.5 107v1063l174 31v-1094q0 -174 -65.5 -274t-179.5 -165zM120 1374q0 52 33.5 90.5t80.5 38.5q48 0 81.5 -38.5t33.5 -90.5q0 -54 -33.5 -91t-81.5 -37q-47 0 -80.5 37t-33.5 91z"
         id="glyph3553" /><glyph
         unicode="k"
         horiz-adv-x="1073"
         d="M155 0v1503l174 29v-865l434 408h221l-367 -347l462 -728h-200l-391 608l-159 -146v-462h-174z"
         id="glyph3555" /><glyph
         unicode="l"
         horiz-adv-x="484"
         d="M155 0v1503l174 29v-1532h-174z"
         id="glyph3557" /><glyph
         unicode="m"
         horiz-adv-x="1864"
         d="M155 0v1062l159 26l13 -99q54 38 139.5 75t186.5 37q86 0 166 -29t134 -107q67 56 164 96t212 40q112 0 188 -30t120 -87.5t62 -142t18 -192.5v-649h-176v671q0 135 -51.5 210.5t-189.5 75.5q-45 0 -90 -12t-84.5 -30.5t-72 -38.5t-55.5 -38q11 -38 17 -80t6 -109v-649 h-174v671q0 58 -10 110.5t-35.5 91.5t-68.5 61.5t-111 22.5q-80 0 -157.5 -39t-135.5 -80v-838h-174z"
         id="glyph3559" /><glyph
         unicode="n"
         horiz-adv-x="1217"
         d="M155 0v1062l159 26l13 -99q65 49 154 80.5t186 31.5q221 0 312 -109t91 -323v-669h-174v673q0 135 -60 211.5t-198 76.5q-86 0 -168.5 -36.5t-140.5 -81.5v-843h-174z"
         id="glyph3561" /><glyph
         unicode="o"
         horiz-adv-x="1206"
         d="M103 543q0 106 31 206t93.5 178.5t156 126t220.5 47.5q124 0 218.5 -48.5t156.5 -127t93.5 -180t31.5 -207.5t-31.5 -207t-93.5 -179.5t-156.5 -127.5t-218.5 -49t-217.5 49t-156.5 128.5t-95 182t-32 208.5zM275 543q0 -81 20.5 -157.5t61.5 -136.5t103 -97.5t144 -37.5 q84 0 145.5 37.5t103 97.5t62 136.5t20.5 155.5t-20.5 155t-62 136t-103 96.5t-145.5 36.5t-146 -36.5t-102 -96.5t-60.5 -135t-20.5 -154z"
         id="glyph3563" /><glyph
         unicode="p"
         horiz-adv-x="1180"
         d="M155 -426v1488l156 26l16 -92q69 56 147 80.5t164 24.5q120 0 203 -44.5t136 -121.5t76.5 -177t23.5 -208q0 -131 -40.5 -237t-111.5 -181.5t-170 -116t-214 -40.5q-131 0 -212 36v-437h-174zM329 162q25 -18 72.5 -33t105.5 -15q86 0 159 30t126 84t82 133.5t29 181.5 q0 75 -15.5 150t-51.5 135t-96 96.5t-147 36.5q-73 0 -140.5 -31t-123.5 -83v-685z"
         id="glyph3565" /><glyph
         unicode="q"
         horiz-adv-x="1186"
         d="M103 538q0 126 42 230t116.5 178.5t178 114.5t229.5 40q86 0 187 -8.5t176 -20.5v-1498h-174v460q-52 -27 -118.5 -44.5t-139.5 -17.5q-104 0 -194 40t-158 113t-106.5 178t-38.5 235zM277 534q0 -88 23.5 -164.5t69 -131.5t113 -88t155.5 -33q63 0 121 20t99 46v763 q-32 7 -81 11t-106 4q-73 0 -143 -26.5t-126 -80.5t-90.5 -134t-34.5 -186z"
         id="glyph3567" /><glyph
         unicode="r"
         horiz-adv-x="724"
         d="M155 0v1062l156 26l16 -108q43 45 110.5 83t136.5 38q50 0 91.5 -6.5t64.5 -13.5l-32 -159q-58 24 -135 24h-6q-65 0 -125 -36t-103 -74v-836h-174z"
         id="glyph3569" /><glyph
         unicode="s"
         horiz-adv-x="927"
         d="M79 183l135 83q39 -72 98.5 -112t160.5 -40q221 0 221 159q0 47 -15 79.5t-47 59.5t-84 49.5t-127 50.5q-81 27 -137 57.5t-92.5 66t-53 81.5t-16.5 106q0 131 96 204.5t253 73.5q131 0 219 -43.5t148 -124.5l-122 -97q-45 54 -105.5 89.5t-137.5 35.5q-95 0 -141 -36.5 t-46 -90.5q0 -34 12.5 -60t44 -47.5t82 -43t129.5 -47.5q149 -52 225.5 -131t76.5 -210q0 -77 -29 -136.5t-80 -100t-120.5 -62t-153.5 -21.5q-159 0 -249.5 58.5t-144.5 149.5z"
         id="glyph3571" /><glyph
         unicode="t"
         horiz-adv-x="738"
         d="M43 933v142h185v277l174 31v-308h292l-25 -142h-271v-688q0 -79 31 -105t78 -26q43 0 81 18.5t70 43.5l67 -118q-52 -38 -102.5 -60.5t-142.5 -22.5q-122 0 -187 62t-65 191v705h-185z"
         id="glyph3573" /><glyph
         unicode="u"
         horiz-adv-x="1211"
         d="M148 394v668l174 28v-705q0 -142 65.5 -206.5t193.5 -64.5q83 0 165.5 35.5t134.5 84.5v841h176v-1075h-161l-10 84q-65 -50 -142 -79.5t-192 -29.5q-212 0 -308 104t-96 315z"
         id="glyph3575" /><glyph
         unicode="v"
         horiz-adv-x="1004"
         d="M0 1075h187l320 -877l322 877h175l-402 -1075h-198z"
         id="glyph3577" /><glyph
         unicode="w"
         horiz-adv-x="1488"
         d="M0 1075h187l243 -809l264 809h99l266 -809l243 809h187l-356 -1075h-135l-254 776l-253 -776h-135z"
         id="glyph3579" /><glyph
         unicode="x"
         horiz-adv-x="907"
         d="M0 0l361 548l-346 527h197l243 -385l246 385h185l-343 -523l356 -552h-187l-263 402l-262 -402h-187z"
         id="glyph3581" /><glyph
         unicode="y"
         horiz-adv-x="1019"
         d="M0 1075h198l318 -827l318 827h187l-550 -1359q-41 -99 -114 -135t-152 -36q-52 0 -109.5 14.5t-88.5 28.5l49 128q25 -9 62 -17t76 -8q51 0 80.5 24.5t61.5 97.5l88 215z"
         id="glyph3583" /><glyph
         unicode="z"
         horiz-adv-x="1017"
         d="M90 0v169l640 764h-616v142h794v-179l-642 -754h669l-25 -142h-820z"
         id="glyph3585" /><glyph
         unicode="{"
         horiz-adv-x="537"
         d="M43 694v119q83 11 136 62t53 161v336q0 153 73 211.5t222 63.5l14 -122q-54 -3 -84.5 -15t-46.5 -34.5t-19.5 -56t-3.5 -80.5v-303q0 -122 -38 -186t-140 -98q101 -32 139.5 -95.5t38.5 -185.5v-304q0 -45 3.5 -78t19.5 -54.5t46 -32.5t85 -13l-14 -129q-149 2 -222 62 t-73 213v336q0 110 -53 161t-136 62z"
         id="glyph3587" /><glyph
         unicode="|"
         horiz-adv-x="477"
         d="M157 -167v1829h163v-1829h-163z"
         id="glyph3589" /><glyph
         unicode="}"
         horiz-adv-x="537"
         d="M-2 -11q54 2 84 13t46 32.5t19.5 54.5t3.5 78v304q0 122 38.5 185.5t139.5 95.5q-101 34 -139.5 98t-38.5 186v303q0 47 -3.5 80.5t-19.5 56t-46 34.5t-84 15l13 122q149 -5 222.5 -63.5t73.5 -211.5v-336q0 -110 52.5 -160.5t136.5 -62.5v-119q-84 -11 -136.5 -62 t-52.5 -161v-336q0 -153 -73.5 -213t-222.5 -62z"
         id="glyph3591" /><glyph
         unicode="~"
         horiz-adv-x="995"
         d="M-7 1142q18 150 97 236t221 86q86 0 140 -27t94 -60.5t77.5 -61t89.5 -27.5q38 0 65 17t44 43t26 58t11 62h146q-4 -88 -33 -151.5t-73 -105.5t-98 -61t-110 -19q-75 0 -125.5 28t-91.5 62t-80 62t-96 28q-75 0 -115 -50.5t-44 -118.5h-145z"
         id="glyph3593" /><glyph
         unicode="¡"
         horiz-adv-x="445"
         d="M101 967q0 56 35.5 95t86.5 39q52 0 86.5 -39t34.5 -95q0 -58 -34.5 -96.5t-86.5 -38.5q-51 0 -86.5 38t-35.5 97zM133 -428v1000h174v-1000h-174z"
         id="glyph3595" /><glyph
         unicode="¢"
         d="M202 759q0 95 30 170t80.5 129.5t119 87t147.5 43.5v314h124v-314q88 -2 155.5 -34.5t108.5 -66.5l-71 -119q-45 39 -92 58.5t-101 19.5v-585q47 2 93.5 17t82.5 35l56 -131q-43 -28 -107.5 -47.5t-124.5 -21.5v-323h-124v327q-179 25 -278 144t-99 297zM376 759 q0 -122 53 -190.5t150 -99.5v576q-91 -11 -147 -84t-56 -202z"
         id="glyph3597" /><glyph
         unicode="£"
         d="M103 565v153h157v339q0 226 108.5 342.5t314.5 116.5q167 0 263.5 -74.5t147.5 -186.5l-170 -83q-30 69 -85 124.5t-159 55.5q-124 0 -187 -71t-63 -234v-329h498v-153h-498v-412h664v-153h-834v565h-157z"
         id="glyph3599" /><glyph
         unicode="¤"
         horiz-adv-x="1504"
         d="M0 174l354 360q-47 64 -73.5 140t-26.5 160q0 79 23.5 152t66.5 136l-344 346l129 114l331 -341q65 47 141.5 74.5t161.5 27.5q165 0 291 -92l322 331l129 -114l-331 -333q47 -65 73 -140t26 -161q0 -178 -108 -314l340 -346l-115 -109l-343 345q-63 -40 -133.5 -63 t-150.5 -23q-83 0 -157.5 25t-136.5 70l-352 -354zM417 832q0 -73 27 -136.5t74 -110.5t110.5 -74t134.5 -27q73 0 135.5 27t110.5 74t75 110.5t27 136.5q0 72 -27 136t-75 111t-110.5 74t-135.5 27q-72 0 -135 -27t-110 -74t-74 -111.5t-27 -135.5z"
         id="glyph3601" /><glyph
         unicode="¥"
         d="M34 1485h205l365 -656l383 656h195l-434 -717h311v-123h-371v-147h371v-124h-371v-374h-181v374h-372v124h372v147h-372v123h314z"
         id="glyph3603" /><glyph
         unicode="¦"
         horiz-adv-x="432"
         d="M135 -167v620h162v-620h-162zM135 1041v621h162v-621h-162z"
         id="glyph3605" /><glyph
         unicode="§"
         d="M243 -194l86 119q45 -51 106 -83.5t133 -32.5q94 0 148 42.5t54 116.5q0 39 -13 73t-45 68.5t-85 75.5t-131 92q-116 77 -184.5 160t-68.5 205t81.5 191.5t200.5 97.5q-43 36 -80 69.5t-65.5 72t-44 84.5t-15.5 107q0 124 91.5 196t235.5 72q114 0 186 -38.5t117 -89.5 l-94 -102q-39 46 -95 72.5t-119 26.5q-169 0 -169 -137q0 -67 62 -132.5t177 -164.5q77 -65 127.5 -115t79.5 -95t42 -90t13 -102q0 -53 -21.5 -99.5t-56 -81.5t-77.5 -61t-89 -39q46 -34 82.5 -65.5t63.5 -65t42 -74.5t15 -92q0 -75 -30.5 -132t-81.5 -97t-115 -61 t-130 -21q-114 0 -194.5 35t-138.5 95zM404 645q0 -86 60.5 -148.5t167.5 -140.5q86 26 135.5 78t49.5 125q0 38 -9.5 70.5t-33.5 66.5t-63.5 71t-95.5 84q-95 -15 -153 -63.5t-58 -142.5z"
         id="glyph3607" /><glyph
         unicode="¨"
         horiz-adv-x="995"
         d="M191 1455q0 52 32.5 88.5t80.5 36.5q45 0 78 -36.5t33 -88.5q0 -51 -33 -88.5t-78 -37.5q-48 0 -80.5 37.5t-32.5 88.5zM581 1455q0 52 33 88.5t78 36.5q47 0 79.5 -36.5t32.5 -88.5q0 -51 -32.5 -88.5t-79.5 -37.5q-45 0 -78 37.5t-33 88.5z"
         id="glyph3609" /><glyph
         unicode="©"
         horiz-adv-x="1747"
         d="M101 669q0 157 48.5 307t146.5 268.5t242.5 190.5t338.5 72q191 0 335 -72t241 -190.5t145.5 -268.5t48.5 -307q0 -160 -48.5 -311t-145.5 -269.5t-242 -190.5t-337 -72q-193 0 -337.5 72t-241.5 190.5t-145.5 269.5t-48.5 311zM241 669q0 -133 40.5 -261.5t120.5 -228.5 t198 -161t277 -61q155 0 273 61t198 161t119.5 228.5t39.5 261.5t-39.5 260.5t-119.5 227.5t-198 160.5t-273 60.5q-158 0 -277.5 -60.5t-198.5 -160.5t-119.5 -227.5t-40.5 -260.5zM464 664q0 136 32.5 234t89 162t133 94.5t164.5 30.5q127 0 203.5 -57.5t119.5 -134.5 l-107 -67q-34 63 -84 100.5t-136 37.5q-122 0 -197.5 -101t-75.5 -299q0 -191 80 -290t197 -99q75 0 128 39.5t96 102.5l103 -73q-52 -86 -130 -137.5t-199 -51.5q-88 0 -164.5 29.5t-132 91.5t-88 157.5t-32.5 230.5z"
         id="glyph3611" /><glyph
         unicode="ª"
         horiz-adv-x="770"
         d="M79 948q0 86 43 142t110 89t150.5 46.5t165.5 13.5q0 94 -39.5 133.5t-112.5 39.5q-108 0 -170 -88l-106 66q45 68 116 105t172 37q135 0 209.5 -68.5t74.5 -231.5v-518h-133l-5 54q-32 -26 -85.5 -50t-114.5 -24q-52 0 -102 15.5t-88 48.5t-61.5 80.5t-23.5 109.5z M223 946q0 -67 47.5 -98t96.5 -31q54 0 101.5 21.5t79.5 49.5v232q-61 0 -118.5 -9.5t-104 -29t-74.5 -52.5t-28 -83z"
         id="glyph3613" /><glyph
         unicode="«"
         horiz-adv-x="1083"
         d="M34 563l437 460l117 -88l-326 -361l357 -353l-107 -99zM447 563l437 460l117 -88l-326 -361l357 -353l-107 -99z"
         id="glyph3615" /><glyph
         unicode="¬"
         d="M63 843v157h1063v-826h-161v669h-902z"
         id="glyph3617" /><glyph
         unicode="­"
         horiz-adv-x="690"
         d="M101 509v158h490v-158h-490z"
         id="glyph3619" /><glyph
         unicode="®"
         horiz-adv-x="1747"
         d="M101 669q0 157 48.5 307t146.5 268.5t242.5 190.5t338.5 72q191 0 335 -72t241 -190.5t145.5 -268.5t48.5 -307q0 -160 -48.5 -311t-145.5 -269.5t-242 -190.5t-337 -72q-193 0 -337.5 72t-241.5 190.5t-145.5 269.5t-48.5 311zM241 669q0 -133 40.5 -261.5t120.5 -228.5 t198 -161t277 -61q155 0 273 61t198 161t119.5 228.5t39.5 261.5t-39.5 260.5t-119.5 227.5t-198 160.5t-273 60.5q-158 0 -277.5 -60.5t-198.5 -160.5t-119.5 -227.5t-40.5 -260.5zM561 180v994h322q170 0 249.5 -75.5t79.5 -199.5q0 -129 -67.5 -195t-168.5 -87l267 -437 h-155l-263 426h-129v-426h-135zM696 728h181q193 -1 193 171q0 155 -184 155h-190v-326z"
         id="glyph3621" /><glyph
         unicode="¯"
         horiz-adv-x="995"
         d="M167 1329v139h662v-139h-662z"
         id="glyph3623" /><glyph
         unicode="°"
         horiz-adv-x="817"
         d="M90 1178q0 63 25 123t69 104t102 71t124 27q65 0 124 -26t101.5 -70t67.5 -104t25 -125q0 -67 -25 -126t-67.5 -103t-101.5 -69.5t-124 -25.5t-123.5 25.5t-102.5 69.5t-69 103t-25 126zM226 1178q0 -41 14 -74.5t40.5 -59t59 -40.5t70.5 -15q82 0 133.5 57t51.5 132 t-52 132t-133 57q-79 0 -131.5 -55t-52.5 -134z"
         id="glyph3625" /><glyph
         unicode="±"
         d="M69 0v151h1077v-151h-1077zM81 827v157h453v493h158v-493h452v-157h-452v-496h-158v496h-453z"
         id="glyph3627" /><glyph
         unicode="²"
         horiz-adv-x="675"
         d="M60 1341q52 86 115.5 129.5t164.5 43.5q108 0 173.5 -57.5t65.5 -151.5q0 -77 -39.5 -142.5t-88.5 -124.5q-39 -42 -77 -83t-77 -83h300v-117h-505v81q68 73 126.5 134.5t105.5 117.5q57 67 83.5 111t26.5 95q0 49 -28 74t-70 25q-46 0 -84 -24t-78 -90z"
         id="glyph3629" /><glyph
         unicode="³"
         horiz-adv-x="675"
         d="M56 896l111 63q37 -58 78 -79.5t82 -21.5q58 0 100 32t42 84q0 53 -45.5 83.5t-124.5 34.5v102q73 4 114.5 32.5t41.5 73.5q0 43 -35 70t-84 27q-95 0 -145 -97l-110 63q45 79 116 115t147 36q48 0 93 -13.5t80 -40.5t57.5 -65.5t22.5 -87.5q0 -52 -23.5 -92.5 t-64.5 -68.5q45 -27 72 -66t27 -104q0 -59 -24.5 -101.5t-64 -72.5t-90.5 -44t-100 -14q-77 0 -149 34.5t-124 117.5z"
         id="glyph3631" /><glyph
         unicode="´"
         horiz-adv-x="995"
         d="M252 1309l376 313l116 -117l-408 -280z"
         id="glyph3633" /><glyph
         unicode="µ"
         horiz-adv-x="1292"
         d="M180 -426v1485l176 31v-701q0 -148 67.5 -211.5t195.5 -63.5q104 0 173.5 42t99.5 100q16 32 18 75t2 81v663h176v-809q0 -77 15 -113t69 -36q34 0 60 9l28 -126q-26 -11 -60.5 -18t-57.5 -7q-77 0 -127 28.5t-78 104.5q-67 -70 -142 -101.5t-189 -31.5 q-84 0 -150.5 26.5t-109.5 77.5v-505h-166z"
         id="glyph3635" /><glyph
         unicode="¶"
         horiz-adv-x="1139"
         d="M79 1062q0 90 34.5 170.5t93.5 140.5t139 95t172 35h160v-1830h-160v949q-92 0 -172 35t-139 93t-93.5 138.5t-34.5 173.5zM829 -327v1830h162v-1830h-162z"
         id="glyph3637" /><glyph
         unicode="·"
         horiz-adv-x="647"
         d="M202 832q0 56 35.5 95.5t86.5 39.5q52 0 87.5 -39.5t35.5 -95.5t-35.5 -96t-87.5 -40q-51 0 -86.5 40t-35.5 96z"
         id="glyph3639" /><glyph
         unicode="¸"
         horiz-adv-x="995"
         d="M316 -363l40 111q20 -11 52.5 -20.5t64.5 -9.5q65 0 65 50q0 18 -13 30.5t-33.5 20t-46.5 13.5t-51 8l100 171h132l-65 -106q52 -17 87 -49t35 -84q0 -86 -55.5 -131t-158.5 -45q-41 0 -84 11.5t-69 29.5z"
         id="glyph3641" /><glyph
         unicode="¹"
         horiz-adv-x="675"
         d="M95 1365l238 138h114v-748h-138v590l-154 -88z"
         id="glyph3643" /><glyph
         unicode="º"
         horiz-adv-x="903"
         d="M79 1115q0 77 22.5 152.5t69 134t116 94.5t164.5 36t164.5 -36t116 -95.5t70 -135t23.5 -154.5t-23.5 -153.5t-70 -134.5t-116 -95.5t-164.5 -35.5q-92 0 -162 37t-116.5 97t-70 135t-23.5 154zM223 1115q0 -58 14.5 -112.5t43 -97.5t71 -67.5t99.5 -24.5q56 0 99 24.5 t72 67.5t43.5 96.5t14.5 111.5q0 56 -14.5 110t-43.5 96t-72 66.5t-99 24.5t-99 -24.5t-71.5 -66.5t-43 -94.5t-14.5 -109.5z"
         id="glyph3645" /><glyph
         unicode="»"
         horiz-adv-x="1083"
         d="M52 221l358 353l-326 361l116 88l438 -460l-478 -441zM464 221l358 353l-326 361l116 88l438 -460l-478 -441z"
         id="glyph3647" /><glyph
         unicode="¼"
         horiz-adv-x="1522"
         d="M95 1365l238 138h114v-748h-138v590l-154 -88zM292 45l811 1471l126 -61l-810 -1470zM905 203v107l363 441h108v-449h93v-99h-93v-200h-137v200h-334zM1038 302h201v255z"
         id="glyph3649" /><glyph
         unicode="½"
         horiz-adv-x="1522"
         d="M95 1365l238 138h114v-748h-138v590l-154 -88zM292 45l811 1471l126 -61l-810 -1470zM907 589q52 86 115.5 129.5t164.5 43.5q108 0 173.5 -57.5t65.5 -151.5q0 -77 -39.5 -142.5t-88.5 -124.5q-39 -42 -77 -83t-77 -83h300v-117h-505v81q68 73 126.5 134.5t105.5 117.5 q57 67 83.5 111t26.5 95q0 49 -28 74t-70 25q-46 0 -84 -24t-78 -90z"
         id="glyph3651" /><glyph
         unicode="¾"
         horiz-adv-x="1522"
         d="M56 896l111 63q37 -58 78 -79.5t82 -21.5q58 0 100 32t42 84q0 53 -45.5 83.5t-124.5 34.5v102q73 4 114.5 32.5t41.5 73.5q0 43 -35 70t-84 27q-95 0 -145 -97l-110 63q45 79 116 115t147 36q48 0 93 -13.5t80 -40.5t57.5 -65.5t22.5 -87.5q0 -52 -23.5 -92.5 t-64.5 -68.5q45 -27 72 -66t27 -104q0 -59 -24.5 -101.5t-64 -72.5t-90.5 -44t-100 -14q-77 0 -149 34.5t-124 117.5zM292 45l811 1471l126 -61l-810 -1470zM905 203v107l363 441h108v-449h93v-99h-93v-200h-137v200h-334zM1038 302h201v255z"
         id="glyph3653" /><glyph
         unicode="¿"
         horiz-adv-x="877"
         d="M36 -47q0 101 48.5 183.5t113.5 153.5q50 56 85 96t56.5 72.5t30 61t8.5 61.5v81h165v-97q0 -103 -52 -179.5t-113 -142.5q-77 -81 -120.5 -145t-43.5 -158q0 -110 61 -172.5t176 -62.5q101 0 177.5 59.5t132.5 145.5l122 -88q-29 -48 -68 -94t-93.5 -83t-123.5 -60.5 t-157 -23.5q-198 0 -301.5 104.5t-103.5 287.5zM340 967q0 56 35 95t87 39t86.5 -39t34.5 -95q0 -58 -34.5 -96.5t-86.5 -38.5t-87 38t-35 97z"
         id="glyph3655" /><glyph
         unicode="À"
         horiz-adv-x="1279"
         d="M0 0l579 1503h111l589 -1503h-195l-179 464h-544l-172 -464h-189zM325 1879l115 117l377 -313l-82 -84zM419 624h428l-219 575z"
         id="glyph3657" /><glyph
         unicode="Á"
         horiz-adv-x="1279"
         d="M0 0l579 1503h111l589 -1503h-195l-179 464h-544l-172 -464h-189zM414 1683l376 313l116 -117l-408 -280zM419 624h428l-219 575z"
         id="glyph3659" /><glyph
         unicode="Â"
         horiz-adv-x="1279"
         d="M0 0l579 1503h111l589 -1503h-195l-179 464h-544l-172 -464h-189zM298 1668l283 323h109l284 -323l-99 -69l-239 252l-236 -252zM419 624h428l-219 575z"
         id="glyph3661" /><glyph
         unicode="Ã"
         horiz-adv-x="1279"
         d="M0 0l579 1503h111l589 -1503h-195l-179 464h-544l-172 -464h-189zM237 1707q32 101 94 162t138 61q45 0 87 -20t80.5 -44t73 -44t66.5 -20q34 0 67.5 29.5t65.5 103.5l110 -54q-36 -103 -96.5 -162t-133.5 -59q-45 0 -88 20.5t-81 44t-75.5 44t-71.5 20.5 q-36 0 -65 -30.5t-60 -102.5zM419 624h428l-219 575z"
         id="glyph3663" /><glyph
         unicode="Ä"
         horiz-adv-x="1279"
         d="M0 0l579 1503h111l589 -1503h-195l-179 464h-544l-172 -464h-189zM329 1829q0 52 32.5 88.5t80.5 36.5q45 0 78 -36.5t33 -88.5q0 -51 -33 -88.5t-78 -37.5q-48 0 -80.5 37.5t-32.5 88.5zM419 624h428l-219 575zM719 1829q0 52 33 88.5t78 36.5q47 0 79.5 -36.5 t32.5 -88.5q0 -51 -32.5 -88.5t-79.5 -37.5q-45 0 -78 37.5t-33 88.5z"
         id="glyph3665" /><glyph
         unicode="Å"
         horiz-adv-x="1279"
         d="M0 0l576 1498q-72 20 -110 82t-38 135q0 43 13.5 83t39.5 72t65 50.5t92 18.5q52 0 91 -18.5t66.5 -50.5t40.5 -72t13 -83q0 -73 -40.5 -137t-116.5 -82l587 -1496h-195l-179 464h-544l-172 -464h-189zM419 624h428l-219 575zM522 1715q0 -50 29.5 -91.5t86.5 -41.5 q56 0 85 41.5t29 91.5q0 52 -29 93t-85 41t-86 -41t-30 -93z"
         id="glyph3667" /><glyph
         unicode="Æ"
         horiz-adv-x="1903"
         d="M0 0l847 1503h948v-155h-653v-483h453v-155h-453v-555h705v-155h-886v464h-499l-262 -464h-200zM552 624h409v728z"
         id="glyph3669" /><glyph
         unicode="Ç"
         horiz-adv-x="1281"
         d="M110 746q0 209 52 359t136.5 244.5t191.5 138.5t217 44q172 0 304.5 -83.5t198.5 -225.5l-146 -88q-20 41 -53 83t-77 74t-97 53.5t-114 21.5q-198 0 -310 -161t-112 -462q0 -147 34.5 -260.5t92.5 -191.5t138.5 -117.5t172.5 -39.5q65 0 115.5 18.5t92.5 48.5t74.5 72 t59.5 87l138 -88q-28 -50 -66 -98.5t-88.5 -90t-114.5 -70.5t-146 -39l-43 -70q52 -17 87 -49t35 -84q0 -86 -55.5 -131t-158.5 -45q-41 0 -83.5 11.5t-69.5 29.5l41 111q19 -11 52 -20.5t64 -9.5q65 0 66 50q0 18 -13.5 30.5t-34 20t-46.5 13.5t-50 8l76 132 q-120 9 -222.5 59t-177.5 145t-118 235.5t-43 334.5z"
         id="glyph3671" /><glyph
         unicode="È"
         horiz-adv-x="1157"
         d="M183 0v1503h876v-155h-696v-483h497v-155h-499v-555h752v-155h-930zM358 1879l115 117l377 -313l-82 -84z"
         id="glyph3673" /><glyph
         unicode="É"
         horiz-adv-x="1157"
         d="M183 0v1503h876v-155h-696v-483h497v-155h-499v-555h752v-155h-930zM421 1683l376 313l116 -117l-408 -280z"
         id="glyph3675" /><glyph
         unicode="Ê"
         horiz-adv-x="1157"
         d="M183 0v1503h876v-155h-696v-483h497v-155h-499v-555h752v-155h-930zM302 1668l283 323h109l284 -323l-99 -69l-239 252l-236 -252z"
         id="glyph3677" /><glyph
         unicode="Ë"
         horiz-adv-x="1157"
         d="M183 0v1503h876v-155h-696v-483h497v-155h-499v-555h752v-155h-930zM322 1829q0 52 32.5 88.5t80.5 36.5q45 0 78 -36.5t33 -88.5q0 -51 -33 -88.5t-78 -37.5q-48 0 -80.5 37.5t-32.5 88.5zM712 1829q0 52 33 88.5t78 36.5q47 0 79.5 -36.5t32.5 -88.5q0 -51 -32.5 -88.5 t-79.5 -37.5q-45 0 -78 37.5t-33 88.5z"
         id="glyph3679" /><glyph
         unicode="Ì"
         horiz-adv-x="544"
         d="M-23 1879l115 117l377 -313l-82 -84zM183 0v1503h180v-1503h-180z"
         id="glyph3681" /><glyph
         unicode="Í"
         horiz-adv-x="544"
         d="M87 1683l376 313l116 -117l-408 -280zM183 0v1503h180v-1503h-180z"
         id="glyph3683" /><glyph
         unicode="Î"
         horiz-adv-x="544"
         d="M-47 1668l283 323h109l284 -323l-99 -69l-239 252l-236 -252zM183 0v1503h180v-1503h-180z"
         id="glyph3685" /><glyph
         unicode="Ï"
         horiz-adv-x="544"
         d="M-24 1829q0 52 32.5 88.5t80.5 36.5q45 0 78 -36.5t33 -88.5q0 -51 -33 -88.5t-78 -37.5q-48 0 -80.5 37.5t-32.5 88.5zM183 0v1503h180v-1503h-180zM366 1829q0 52 33 88.5t78 36.5q47 0 79.5 -36.5t32.5 -88.5q0 -51 -32.5 -88.5t-79.5 -37.5q-45 0 -78 37.5t-33 88.5z "
         id="glyph3687" /><glyph
         unicode="Ð"
         horiz-adv-x="1408"
         d="M0 712v139h183v652h389q86 0 181.5 -15t174.5 -52q162 -78 266 -243t104 -421q0 -157 -36.5 -282t-99.5 -217.5t-150.5 -153.5t-188.5 -89q-52 -16 -123.5 -23t-127.5 -7h-389v712h-183zM363 155h185q52 0 113.5 5t114.5 27q67 27 128 74.5t107 116.5t72 164t26 221 q0 196 -61 316t-165 187q-65 43 -153 62.5t-171 19.5h-196v-497h360v-139h-360v-557z"
         id="glyph3689" /><glyph
         unicode="Ñ"
         horiz-adv-x="1481"
         d="M183 0v1503h182l757 -1120v1120h178v-1503h-133l-806 1191v-1191h-178zM379 1707q32 101 94 162t138 61q45 0 87 -20t80.5 -44t73 -44t66.5 -20q34 0 67.5 29.5t65.5 103.5l110 -54q-36 -103 -96.5 -162t-133.5 -59q-45 0 -88 20.5t-81 44t-75.5 44t-71.5 20.5 q-36 0 -65 -30.5t-60 -102.5z"
         id="glyph3691" /><glyph
         unicode="Ò"
         horiz-adv-x="1488"
         d="M110 752q0 147 37.5 286.5t115 250t197 177t286.5 66.5q165 0 283.5 -66.5t197 -177t115 -250t36.5 -286.5q0 -146 -36.5 -287t-115 -250t-197.5 -177t-283 -68q-167 0 -286.5 68t-197 177t-115 250t-37.5 287zM299 752q0 -116 27.5 -228t82.5 -200t138 -140.5t199 -52.5 q114 0 197.5 52.5t137.5 140.5t81 200t27 228q0 115 -26 226.5t-79.5 199.5t-138.5 141t-199 53q-115 0 -199.5 -53t-140 -141t-81.5 -199.5t-26 -226.5zM497 1879l115 117l377 -313l-82 -84z"
         id="glyph3693" /><glyph
         unicode="Ó"
         horiz-adv-x="1488"
         d="M110 752q0 147 37.5 286.5t115 250t197 177t286.5 66.5q165 0 283.5 -66.5t197 -177t115 -250t36.5 -286.5q0 -146 -36.5 -287t-115 -250t-197.5 -177t-283 -68q-167 0 -286.5 68t-197 177t-115 250t-37.5 287zM299 752q0 -116 27.5 -228t82.5 -200t138 -140.5t199 -52.5 q114 0 197.5 52.5t137.5 140.5t81 200t27 228q0 115 -26 226.5t-79.5 199.5t-138.5 141t-199 53q-115 0 -199.5 -53t-140 -141t-81.5 -199.5t-26 -226.5zM518 1683l376 313l116 -117l-408 -280z"
         id="glyph3695" /><glyph
         unicode="Ô"
         horiz-adv-x="1488"
         d="M110 752q0 147 37.5 286.5t115 250t197 177t286.5 66.5q165 0 283.5 -66.5t197 -177t115 -250t36.5 -286.5q0 -146 -36.5 -287t-115 -250t-197.5 -177t-283 -68q-167 0 -286.5 68t-197 177t-115 250t-37.5 287zM299 752q0 -116 27.5 -228t82.5 -200t138 -140.5t199 -52.5 q114 0 197.5 52.5t137.5 140.5t81 200t27 228q0 115 -26 226.5t-79.5 199.5t-138.5 141t-199 53q-115 0 -199.5 -53t-140 -141t-81.5 -199.5t-26 -226.5zM408 1668l283 323h109l284 -323l-99 -69l-239 252l-236 -252z"
         id="glyph3697" /><glyph
         unicode="Õ"
         horiz-adv-x="1488"
         d="M110 752q0 147 37.5 286.5t115 250t197 177t286.5 66.5q165 0 283.5 -66.5t197 -177t115 -250t36.5 -286.5q0 -146 -36.5 -287t-115 -250t-197.5 -177t-283 -68q-167 0 -286.5 68t-197 177t-115 250t-37.5 287zM299 752q0 -116 27.5 -228t82.5 -200t138 -140.5t199 -52.5 q114 0 197.5 52.5t137.5 140.5t81 200t27 228q0 115 -26 226.5t-79.5 199.5t-138.5 141t-199 53q-115 0 -199.5 -53t-140 -141t-81.5 -199.5t-26 -226.5zM345 1707q32 101 94 162t138 61q45 0 87 -20t80.5 -44t73 -44t66.5 -20q34 0 67.5 29.5t65.5 103.5l110 -54 q-36 -103 -96.5 -162t-133.5 -59q-45 0 -88 20.5t-81 44t-75.5 44t-71.5 20.5q-36 0 -65 -30.5t-60 -102.5z"
         id="glyph3699" /><glyph
         unicode="Ö"
         horiz-adv-x="1488"
         d="M110 752q0 147 37.5 286.5t115 250t197 177t286.5 66.5q165 0 283.5 -66.5t197 -177t115 -250t36.5 -286.5q0 -146 -36.5 -287t-115 -250t-197.5 -177t-283 -68q-167 0 -286.5 68t-197 177t-115 250t-37.5 287zM299 752q0 -116 27.5 -228t82.5 -200t138 -140.5t199 -52.5 q114 0 197.5 52.5t137.5 140.5t81 200t27 228q0 115 -26 226.5t-79.5 199.5t-138.5 141t-199 53q-115 0 -199.5 -53t-140 -141t-81.5 -199.5t-26 -226.5zM441 1829q0 52 32.5 88.5t80.5 36.5q45 0 78 -36.5t33 -88.5q0 -51 -33 -88.5t-78 -37.5q-48 0 -80.5 37.5t-32.5 88.5 zM831 1829q0 52 33 88.5t78 36.5q47 0 79.5 -36.5t32.5 -88.5q0 -51 -32.5 -88.5t-79.5 -37.5q-45 0 -78 37.5t-33 88.5z"
         id="glyph3701" /><glyph
         unicode="×"
         d="M187 297l304 305l-304 301l114 122l307 -307l309 307l113 -122l-305 -301l305 -305l-110 -123l-312 310l-309 -310z"
         id="glyph3703" /><glyph
         unicode="Ø"
         horiz-adv-x="1488"
         d="M110 752q0 147 37.5 286.5t115 250t197 177t286.5 66.5q135 0 240.5 -47t185.5 -127l139 176l110 -94l-164 -206q59 -108 90 -230.5t31 -251.5q0 -146 -36.5 -287t-115 -250t-197.5 -177t-283 -68q-117 0 -214.5 36.5t-170.5 96.5l-122 -153l-110 100l135 169 q-75 110 -114.5 249.5t-39.5 283.5zM299 752q0 -101 22.5 -197.5t63.5 -182.5l674 847q-54 69 -133 111t-180 42q-115 0 -199.5 -53t-140 -141t-81.5 -199.5t-26 -226.5zM471 243q51 -52 121 -82t154 -30q114 0 197.5 52.5t137.5 140.5t81 200t27 228q0 82 -15.5 164 t-42.5 156z"
         id="glyph3705" /><glyph
         unicode="Ù"
         horiz-adv-x="1457"
         d="M174 503v1000h180v-967q0 -192 99 -298.5t275 -106.5q178 0 277 103.5t99 301.5v967h180v-1000q0 -133 -46.5 -232t-124 -166t-178.5 -101t-212 -34q-117 0 -217 34t-175 101t-116 166t-41 232zM432 1879l115 117l377 -313l-82 -84z"
         id="glyph3707" /><glyph
         unicode="Ú"
         horiz-adv-x="1457"
         d="M174 503v1000h180v-967q0 -192 99 -298.5t275 -106.5q178 0 277 103.5t99 301.5v967h180v-1000q0 -133 -46.5 -232t-124 -166t-178.5 -101t-212 -34q-117 0 -217 34t-175 101t-116 166t-41 232zM523 1683l376 313l116 -117l-408 -280z"
         id="glyph3709" /><glyph
         unicode="Û"
         horiz-adv-x="1457"
         d="M174 503v1000h180v-967q0 -192 99 -298.5t275 -106.5q178 0 277 103.5t99 301.5v967h180v-1000q0 -133 -46.5 -232t-124 -166t-178.5 -101t-212 -34q-117 0 -217 34t-175 101t-116 166t-41 232zM408 1668l283 323h109l284 -323l-99 -69l-239 252l-236 -252z"
         id="glyph3711" /><glyph
         unicode="Ü"
         horiz-adv-x="1457"
         d="M174 503v1000h180v-967q0 -192 99 -298.5t275 -106.5q178 0 277 103.5t99 301.5v967h180v-1000q0 -133 -46.5 -232t-124 -166t-178.5 -101t-212 -34q-117 0 -217 34t-175 101t-116 166t-41 232zM434 1829q0 52 32.5 88.5t80.5 36.5q45 0 78 -36.5t33 -88.5 q0 -51 -33 -88.5t-78 -37.5q-48 0 -80.5 37.5t-32.5 88.5zM824 1829q0 52 33 88.5t78 36.5q47 0 79.5 -36.5t32.5 -88.5q0 -51 -32.5 -88.5t-79.5 -37.5q-45 0 -78 37.5t-33 88.5z"
         id="glyph3713" /><glyph
         unicode="Ý"
         horiz-adv-x="1223"
         d="M0 1503h205l401 -609l421 609h196l-531 -780v-723h-180v720zM409 1683l376 313l116 -117l-408 -280z"
         id="glyph3715" /><glyph
         unicode="Þ"
         horiz-adv-x="1202"
         d="M183 0v1503h180v-267h269q512 0 512 -452q0 -219 -131.5 -332.5t-384.5 -113.5h-265v-338h-180zM363 496h277q138 0 223 68t85 222q0 156 -81 227t-229 71h-275v-588z"
         id="glyph3717" /><glyph
         unicode="ß"
         horiz-adv-x="1189"
         d="M45 933v142h155q5 225 111 341t304 116q183 0 290 -110.5t107 -301.5v-165h-174q-94 0 -139.5 -34.5t-45.5 -91.5q0 -31 10 -56t35 -47.5t66.5 -44t105.5 -49.5q144 -60 211 -140t67 -197q0 -75 -27 -134.5t-74 -101t-110 -63t-137 -21.5q-75 0 -129 13.5t-94.5 40.5 t-72 65.5t-61.5 88.5l142 73q37 -72 86 -107t129 -35q86 0 135 41t49 118t-49 133t-191 114q-115 48 -185.5 117.5t-70.5 191.5q0 136 96 199.5t265 68.5q0 150 -66.5 224t-169.5 74q-104 0 -170.5 -73.5t-66.5 -246.5v-1075h-176v933h-155z"
         id="glyph3719" /><glyph
         unicode="à"
         horiz-adv-x="1058"
         d="M86 311q0 115 61.5 190t156 118t209.5 61t224 18v14q0 135 -57.5 194t-165.5 59q-75 0 -136.5 -33t-104.5 -87l-122 86q65 88 154 129t224 41q181 0 281 -92t100 -308v-701h-158l-8 92q-56 -56 -129.5 -86.5t-161.5 -30.5q-69 0 -136 21.5t-118 63t-82 105t-31 146.5z M230 1505l115 117l377 -313l-82 -84zM262 309q0 -52 19.5 -88t50.5 -59.5t68 -34t73 -10.5q79 0 145.5 33t118.5 78v333q-75 -2 -158 -11t-154 -35.5t-117 -76t-46 -129.5z"
         id="glyph3721" /><glyph
         unicode="á"
         horiz-adv-x="1058"
         d="M86 311q0 115 61.5 190t156 118t209.5 61t224 18v14q0 135 -57.5 194t-165.5 59q-75 0 -136.5 -33t-104.5 -87l-122 86q65 88 154 129t224 41q181 0 281 -92t100 -308v-701h-158l-8 92q-56 -56 -129.5 -86.5t-161.5 -30.5q-69 0 -136 21.5t-118 63t-82 105t-31 146.5z M262 309q0 -52 19.5 -88t50.5 -59.5t68 -34t73 -10.5q79 0 145.5 33t118.5 78v333q-75 -2 -158 -11t-154 -35.5t-117 -76t-46 -129.5zM333 1309l376 313l116 -117l-408 -280z"
         id="glyph3723" /><glyph
         unicode="â"
         horiz-adv-x="1058"
         d="M86 311q0 115 61.5 190t156 118t209.5 61t224 18v14q0 135 -57.5 194t-165.5 59q-75 0 -136.5 -33t-104.5 -87l-122 86q65 88 154 129t224 41q181 0 281 -92t100 -308v-701h-158l-8 92q-56 -56 -129.5 -86.5t-161.5 -30.5q-69 0 -136 21.5t-118 63t-82 105t-31 146.5z M190 1294l283 323h109l284 -323l-99 -69l-239 252l-236 -252zM262 309q0 -52 19.5 -88t50.5 -59.5t68 -34t73 -10.5q79 0 145.5 33t118.5 78v333q-75 -2 -158 -11t-154 -35.5t-117 -76t-46 -129.5z"
         id="glyph3725" /><glyph
         unicode="ã"
         horiz-adv-x="1058"
         d="M86 311q0 115 61.5 190t156 118t209.5 61t224 18v14q0 135 -57.5 194t-165.5 59q-75 0 -136.5 -33t-104.5 -87l-122 86q65 88 154 129t224 41q181 0 281 -92t100 -308v-701h-158l-8 92q-56 -56 -129.5 -86.5t-161.5 -30.5q-69 0 -136 21.5t-118 63t-82 105t-31 146.5z M144 1333q32 101 94 162t138 61q45 0 87 -20t80.5 -44t73 -44t66.5 -20q34 0 67.5 29.5t65.5 103.5l110 -54q-36 -103 -96.5 -162t-133.5 -59q-45 0 -88 20.5t-81 44t-75.5 44t-71.5 20.5q-36 0 -65 -30.5t-60 -102.5zM262 309q0 -52 19.5 -88t50.5 -59.5t68 -34t73 -10.5 q79 0 145.5 33t118.5 78v333q-75 -2 -158 -11t-154 -35.5t-117 -76t-46 -129.5z"
         id="glyph3727" /><glyph
         unicode="ä"
         horiz-adv-x="1058"
         d="M86 311q0 115 61.5 190t156 118t209.5 61t224 18v14q0 135 -57.5 194t-165.5 59q-75 0 -136.5 -33t-104.5 -87l-122 86q65 88 154 129t224 41q181 0 281 -92t100 -308v-701h-158l-8 92q-56 -56 -129.5 -86.5t-161.5 -30.5q-69 0 -136 21.5t-118 63t-82 105t-31 146.5z M225 1455q0 52 32.5 88.5t80.5 36.5q45 0 78 -36.5t33 -88.5q0 -51 -33 -88.5t-78 -37.5q-48 0 -80.5 37.5t-32.5 88.5zM262 309q0 -52 19.5 -88t50.5 -59.5t68 -34t73 -10.5q79 0 145.5 33t118.5 78v333q-75 -2 -158 -11t-154 -35.5t-117 -76t-46 -129.5zM615 1455 q0 52 33 88.5t78 36.5q47 0 79.5 -36.5t32.5 -88.5q0 -51 -32.5 -88.5t-79.5 -37.5q-45 0 -78 37.5t-33 88.5z"
         id="glyph3729" /><glyph
         unicode="å"
         horiz-adv-x="1058"
         d="M86 311q0 115 61.5 190t156 118t209.5 61t224 18v14q0 135 -57.5 194t-165.5 59q-75 0 -136.5 -33t-104.5 -87l-122 86q65 88 154 129t224 41q181 0 281 -92t100 -308v-701h-158l-8 92q-56 -56 -129.5 -86.5t-161.5 -30.5q-69 0 -136 21.5t-118 63t-82 105t-31 146.5z M262 309q0 -52 19.5 -88t50.5 -59.5t68 -34t73 -10.5q79 0 145.5 33t118.5 78v333q-75 -2 -158 -11t-154 -35.5t-117 -76t-46 -129.5zM322 1426q0 42 14 83t39.5 72.5t65.5 50.5t91 19q52 0 91 -19t66.5 -50.5t41 -72.5t13.5 -83q0 -41 -13.5 -81t-41 -72t-66.5 -51t-91 -19 q-51 0 -91 19t-65.5 51t-39.5 71t-14 82zM417 1426q0 -50 29 -91t86 -41q56 0 85.5 41t29.5 91q0 51 -29.5 93t-85.5 42t-85.5 -42t-29.5 -93z"
         id="glyph3731" /><glyph
         unicode="æ"
         horiz-adv-x="1722"
         d="M86 311q0 115 61.5 189t156 118t209.5 62t224 18v14q0 135 -57.5 194t-165.5 59q-75 0 -136.5 -33t-104.5 -87l-125 83q65 86 155.5 129.5t225.5 43.5q122 0 196.5 -40t121.5 -122q54 77 135.5 119.5t204.5 42.5q117 0 202.5 -40t140 -113.5t80.5 -176t26 -223.5h-731 q0 -212 77 -323t232 -111q102 0 167 42t117 128l112 -72q-58 -108 -158 -172.5t-242 -64.5q-81 0 -143.5 18t-107.5 46t-75 62t-48 66q-20 -34 -52 -68t-77 -62t-103 -45t-133 -17q-79 0 -149 22.5t-123 65.5t-83 105t-30 143zM262 309q0 -95 55 -143.5t156 -48.5 q129 0 196.5 56.5t67.5 150.5v237q-75 -2 -158 -11t-154 -35.5t-117 -76t-46 -129.5zM908 685h532q-7 142 -78 211t-175 69q-110 0 -185.5 -64.5t-93.5 -215.5z"
         id="glyph3733" /><glyph
         unicode="ç"
         horiz-adv-x="1067"
         d="M103 534q0 150 43 258.5t113 177t158 100t176 31.5q90 0 158.5 -27t117 -67t79 -85t43.5 -82l-129 -81q-47 108 -119 155t-150 47q-61 0 -117.5 -28t-101.5 -81.5t-72 -132.5t-27 -181q0 -101 27 -180t73 -132.5t108.5 -82.5t131.5 -29q79 0 152 45.5t121 147.5l122 -77 q-54 -112 -143 -173t-194 -77l-45 -75q52 -17 87 -49t35 -84q0 -86 -55.5 -131t-158.5 -45q-41 0 -83.5 11.5t-69.5 29.5l41 111q19 -11 52 -20.5t65 -9.5q65 0 65 50q0 18 -13.5 30.5t-34 20t-46.5 13.5t-50 8l81 140q-88 9 -167 48t-139.5 108t-97 168.5t-36.5 229.5z"
         id="glyph3735" /><glyph
         unicode="è"
         horiz-adv-x="1144"
         d="M103 543q0 129 35.5 231.5t97 175.5t150.5 112t197 39q120 0 209 -40t147.5 -113.5t88 -176t29.5 -223.5h-782q0 -205 92.5 -319.5t268.5 -114.5q101 0 171 50t113 122l114 -77q-58 -101 -151.5 -167.5t-252.5 -66.5q-122 0 -218 37.5t-165 108t-106.5 177t-37.5 245.5z M290 685h570q-2 70 -27 122.5t-62.5 88t-88 52.5t-99.5 17q-108 0 -185.5 -64.5t-107.5 -215.5zM313 1505l115 117l377 -313l-82 -84z"
         id="glyph3737" /><glyph
         unicode="é"
         horiz-adv-x="1144"
         d="M103 543q0 129 35.5 231.5t97 175.5t150.5 112t197 39q120 0 209 -40t147.5 -113.5t88 -176t29.5 -223.5h-782q0 -205 92.5 -319.5t268.5 -114.5q101 0 171 50t113 122l114 -77q-58 -101 -151.5 -167.5t-252.5 -66.5q-122 0 -218 37.5t-165 108t-106.5 177t-37.5 245.5z M290 685h570q-2 70 -27 122.5t-62.5 88t-88 52.5t-99.5 17q-108 0 -185.5 -64.5t-107.5 -215.5zM360 1309l376 313l116 -117l-408 -280z"
         id="glyph3739" /><glyph
         unicode="ê"
         horiz-adv-x="1144"
         d="M103 543q0 129 35.5 231.5t97 175.5t150.5 112t197 39q120 0 209 -40t147.5 -113.5t88 -176t29.5 -223.5h-782q0 -205 92.5 -319.5t268.5 -114.5q101 0 171 50t113 122l114 -77q-58 -101 -151.5 -167.5t-252.5 -66.5q-122 0 -218 37.5t-165 108t-106.5 177t-37.5 245.5z M257 1294l283 323h109l284 -323l-99 -69l-239 252l-236 -252zM290 685h570q-2 70 -27 122.5t-62.5 88t-88 52.5t-99.5 17q-108 0 -185.5 -64.5t-107.5 -215.5z"
         id="glyph3741" /><glyph
         unicode="ë"
         horiz-adv-x="1144"
         d="M103 543q0 129 35.5 231.5t97 175.5t150.5 112t197 39q120 0 209 -40t147.5 -113.5t88 -176t29.5 -223.5h-782q0 -205 92.5 -319.5t268.5 -114.5q101 0 171 50t113 122l114 -77q-58 -101 -151.5 -167.5t-252.5 -66.5q-122 0 -218 37.5t-165 108t-106.5 177t-37.5 245.5z M286 1455q0 52 32.5 88.5t80.5 36.5q45 0 78 -36.5t33 -88.5q0 -51 -33 -88.5t-78 -37.5q-48 0 -80.5 37.5t-32.5 88.5zM290 685h570q-2 70 -27 122.5t-62.5 88t-88 52.5t-99.5 17q-108 0 -185.5 -64.5t-107.5 -215.5zM676 1455q0 52 33 88.5t78 36.5q47 0 79.5 -36.5 t32.5 -88.5q0 -51 -32.5 -88.5t-79.5 -37.5q-45 0 -78 37.5t-33 88.5z"
         id="glyph3743" /><glyph
         unicode="ì"
         horiz-adv-x="484"
         d="M-109 1505l115 117l377 -313l-82 -84zM155 0v1059l174 31v-1090h-174z"
         id="glyph3745" /><glyph
         unicode="í"
         horiz-adv-x="484"
         d="M117 1309l376 313l116 -117l-408 -280zM155 0v1059l174 31v-1090h-174z"
         id="glyph3747" /><glyph
         unicode="î"
         horiz-adv-x="484"
         d="M-90 1294l283 323h109l284 -323l-99 -69l-239 252l-236 -252zM155 0v1059l174 31v-1090h-174z"
         id="glyph3749" /><glyph
         unicode="ï"
         horiz-adv-x="484"
         d="M-59 1455q0 52 32.5 88.5t80.5 36.5q45 0 78 -36.5t33 -88.5q0 -51 -33 -88.5t-78 -37.5q-48 0 -80.5 37.5t-32.5 88.5zM155 0v1059l174 31v-1090h-174zM331 1455q0 52 33 88.5t78 36.5q47 0 79.5 -36.5t32.5 -88.5q0 -51 -32.5 -88.5t-79.5 -37.5q-45 0 -78 37.5 t-33 88.5z"
         id="glyph3751" /><glyph
         unicode="ð"
         horiz-adv-x="1208"
         d="M103 543q0 131 37.5 234.5t103 175.5t158 110t204.5 38q88 0 145 -18.5t96 -37.5q-27 63 -66.5 120.5t-90.5 96.5l-71 -93l-99 65l68 93q-40 22 -101 44t-117 33l34 128q77 -8 149.5 -33.5t117.5 -54.5l70 97l102 -68l-73 -97q67 -54 129 -126t107.5 -166.5t73 -214 t27.5 -267.5q0 -165 -41 -283.5t-108.5 -195t-157.5 -112.5t-192 -36q-105 0 -197.5 38.5t-160 110.5t-107.5 178t-40 241zM277 543q0 -101 25 -181t70 -135t104.5 -84t131.5 -29q67 0 127 27.5t104 86t70 150t26 222.5q0 85 -15 162.5t-30 123.5q-54 29 -124 54t-156 25 q-148 0 -240.5 -109.5t-92.5 -312.5z"
         id="glyph3753" /><glyph
         unicode="ñ"
         horiz-adv-x="1217"
         d="M155 0v1062l159 26l13 -99q65 49 154 80.5t186 31.5q221 0 312 -109t91 -323v-669h-174v673q0 135 -60 211.5t-198 76.5q-86 0 -168.5 -36.5t-140.5 -81.5v-843h-174zM237 1333q32 101 94 162t138 61q45 0 87 -20t80.5 -44t73 -44t66.5 -20q34 0 67.5 29.5t65.5 103.5 l110 -54q-36 -103 -96.5 -162t-133.5 -59q-45 0 -88 20.5t-81 44t-75.5 44t-71.5 20.5q-36 0 -65 -30.5t-60 -102.5z"
         id="glyph3755" /><glyph
         unicode="ò"
         horiz-adv-x="1206"
         d="M103 543q0 106 31 206t93.5 178.5t156 126t220.5 47.5q124 0 218.5 -48.5t156.5 -127t93.5 -180t31.5 -207.5t-31.5 -207t-93.5 -179.5t-156.5 -127.5t-218.5 -49t-217.5 49t-156.5 128.5t-95 182t-32 208.5zM275 543q0 -81 20.5 -157.5t61.5 -136.5t103 -97.5t144 -37.5 q84 0 145.5 37.5t103 97.5t62 136.5t20.5 155.5t-20.5 155t-62 136t-103 96.5t-145.5 36.5t-146 -36.5t-102 -96.5t-60.5 -135t-20.5 -154zM308 1505l115 117l377 -313l-82 -84z"
         id="glyph3757" /><glyph
         unicode="ó"
         horiz-adv-x="1206"
         d="M103 543q0 106 31 206t93.5 178.5t156 126t220.5 47.5q124 0 218.5 -48.5t156.5 -127t93.5 -180t31.5 -207.5t-31.5 -207t-93.5 -179.5t-156.5 -127.5t-218.5 -49t-217.5 49t-156.5 128.5t-95 182t-32 208.5zM275 543q0 -81 20.5 -157.5t61.5 -136.5t103 -97.5t144 -37.5 q84 0 145.5 37.5t103 97.5t62 136.5t20.5 155.5t-20.5 155t-62 136t-103 96.5t-145.5 36.5t-146 -36.5t-102 -96.5t-60.5 -135t-20.5 -154zM374 1309l376 313l116 -117l-408 -280z"
         id="glyph3759" /><glyph
         unicode="ô"
         horiz-adv-x="1206"
         d="M103 543q0 106 31 206t93.5 178.5t156 126t220.5 47.5q124 0 218.5 -48.5t156.5 -127t93.5 -180t31.5 -207.5t-31.5 -207t-93.5 -179.5t-156.5 -127.5t-218.5 -49t-217.5 49t-156.5 128.5t-95 182t-32 208.5zM259 1294l283 323h109l284 -323l-99 -69l-239 252l-236 -252z M275 543q0 -81 20.5 -157.5t61.5 -136.5t103 -97.5t144 -37.5q84 0 145.5 37.5t103 97.5t62 136.5t20.5 155.5t-20.5 155t-62 136t-103 96.5t-145.5 36.5t-146 -36.5t-102 -96.5t-60.5 -135t-20.5 -154z"
         id="glyph3761" /><glyph
         unicode="õ"
         horiz-adv-x="1206"
         d="M103 543q0 106 31 206t93.5 178.5t156 126t220.5 47.5q124 0 218.5 -48.5t156.5 -127t93.5 -180t31.5 -207.5t-31.5 -207t-93.5 -179.5t-156.5 -127.5t-218.5 -49t-217.5 49t-156.5 128.5t-95 182t-32 208.5zM205 1333q32 101 94 162t138 61q45 0 87 -20t80.5 -44t73 -44 t66.5 -20q34 0 67.5 29.5t65.5 103.5l110 -54q-36 -103 -96.5 -162t-133.5 -59q-45 0 -88 20.5t-81 44t-75.5 44t-71.5 20.5q-36 0 -65 -30.5t-60 -102.5zM275 543q0 -81 20.5 -157.5t61.5 -136.5t103 -97.5t144 -37.5q84 0 145.5 37.5t103 97.5t62 136.5t20.5 155.5 t-20.5 155t-62 136t-103 96.5t-145.5 36.5t-146 -36.5t-102 -96.5t-60.5 -135t-20.5 -154z"
         id="glyph3763" /><glyph
         unicode="ö"
         horiz-adv-x="1206"
         d="M103 543q0 106 31 206t93.5 178.5t156 126t220.5 47.5q124 0 218.5 -48.5t156.5 -127t93.5 -180t31.5 -207.5t-31.5 -207t-93.5 -179.5t-156.5 -127.5t-218.5 -49t-217.5 49t-156.5 128.5t-95 182t-32 208.5zM275 543q0 -81 20.5 -157.5t61.5 -136.5t103 -97.5t144 -37.5 q84 0 145.5 37.5t103 97.5t62 136.5t20.5 155.5t-20.5 155t-62 136t-103 96.5t-145.5 36.5t-146 -36.5t-102 -96.5t-60.5 -135t-20.5 -154zM305 1455q0 52 32.5 88.5t80.5 36.5q45 0 78 -36.5t33 -88.5q0 -51 -33 -88.5t-78 -37.5q-48 0 -80.5 37.5t-32.5 88.5zM695 1455 q0 52 33 88.5t78 36.5q47 0 79.5 -36.5t32.5 -88.5q0 -51 -32.5 -88.5t-79.5 -37.5q-45 0 -78 37.5t-33 88.5z"
         id="glyph3765" /><glyph
         unicode="÷"
         d="M77 518v157h1063v-157h-1063zM484 196q0 58 35 97.5t87 39.5t87 -39.5t35 -97.5q0 -56 -35 -96t-87 -40t-87 40t-35 96zM484 1016q0 59 35 98.5t87 39.5t87 -39.5t35 -98.5q0 -56 -35 -95.5t-87 -39.5t-87 39t-35 96z"
         id="glyph3767" /><glyph
         unicode="ø"
         horiz-adv-x="1206"
         d="M103 543q0 106 31 206t93.5 178.5t156 126t220.5 47.5q56 0 111 -12t105 -35l106 180l110 -65l-110 -187q88 -81 133 -198t45 -246q0 -106 -31.5 -207t-93.5 -179.5t-156.5 -127.5t-218.5 -49q-65 0 -124 14.5t-106 40.5l-108 -183l-111 72l113 193q-79 82 -122 195.5 t-43 235.5zM275 543q0 -77 21.5 -151t57.5 -132l392 668q-30 16 -67 26.5t-75 10.5q-84 0 -146 -36.5t-102 -96.5t-60.5 -135t-20.5 -154zM449 157q32 -17 71 -30t84 -13q84 0 145.5 37.5t103 97.5t62 136.5t20.5 155.5q0 82 -23.5 160.5t-66.5 136.5z"
         id="glyph3769" /><glyph
         unicode="ù"
         horiz-adv-x="1211"
         d="M148 394v668l174 28v-705q0 -142 65.5 -206.5t193.5 -64.5q83 0 165.5 35.5t134.5 84.5v841h176v-1075h-161l-10 84q-65 -50 -142 -79.5t-192 -29.5q-212 0 -308 104t-96 315zM306 1505l115 117l377 -313l-82 -84z"
         id="glyph3771" /><glyph
         unicode="ú"
         horiz-adv-x="1211"
         d="M148 394v668l174 28v-705q0 -142 65.5 -206.5t193.5 -64.5q83 0 165.5 35.5t134.5 84.5v841h176v-1075h-161l-10 84q-65 -50 -142 -79.5t-192 -29.5q-212 0 -308 104t-96 315zM405 1309l376 313l116 -117l-408 -280z"
         id="glyph3773" /><glyph
         unicode="û"
         horiz-adv-x="1211"
         d="M148 394v668l174 28v-705q0 -142 65.5 -206.5t193.5 -64.5q83 0 165.5 35.5t134.5 84.5v841h176v-1075h-161l-10 84q-65 -50 -142 -79.5t-192 -29.5q-212 0 -308 104t-96 315zM277 1294l283 323h109l284 -323l-99 -69l-239 252l-236 -252z"
         id="glyph3775" /><glyph
         unicode="ü"
         horiz-adv-x="1211"
         d="M148 394v668l174 28v-705q0 -142 65.5 -206.5t193.5 -64.5q83 0 165.5 35.5t134.5 84.5v841h176v-1075h-161l-10 84q-65 -50 -142 -79.5t-192 -29.5q-212 0 -308 104t-96 315zM305 1455q0 52 32.5 88.5t80.5 36.5q45 0 78 -36.5t33 -88.5q0 -51 -33 -88.5t-78 -37.5 q-48 0 -80.5 37.5t-32.5 88.5zM695 1455q0 52 33 88.5t78 36.5q47 0 79.5 -36.5t32.5 -88.5q0 -51 -32.5 -88.5t-79.5 -37.5q-45 0 -78 37.5t-33 88.5z"
         id="glyph3777" /><glyph
         unicode="ý"
         horiz-adv-x="1019"
         d="M0 1075h198l318 -827l318 827h187l-550 -1359q-41 -99 -114 -135t-152 -36q-52 0 -109.5 14.5t-88.5 28.5l49 128q25 -9 62 -17t76 -8q51 0 80.5 24.5t61.5 97.5l88 215zM313 1309l376 313l116 -117l-408 -280z"
         id="glyph3779" /><glyph
         unicode="þ"
         horiz-adv-x="1180"
         d="M155 -426v1929l174 29v-534q67 54 145 78.5t164 24.5q120 0 203 -44.5t136 -121.5t76.5 -177t23.5 -208q0 -131 -40.5 -237t-111.5 -181.5t-170 -116t-214 -40.5q-131 0 -212 36v-437h-174zM329 162q25 -18 72.5 -33t105.5 -15q86 0 159 30t126 84t82 133.5t29 181.5 q0 75 -15.5 150t-51.5 135t-96 96.5t-147 36.5q-73 0 -140.5 -31t-123.5 -83v-685z"
         id="glyph3781" /><glyph
         unicode="ÿ"
         horiz-adv-x="1019"
         d="M0 1075h198l318 -827l318 827h187l-550 -1359q-41 -99 -114 -135t-152 -36q-52 0 -109.5 14.5t-88.5 28.5l49 128q25 -9 62 -17t76 -8q51 0 80.5 24.5t61.5 97.5l88 215zM225 1455q0 52 32.5 88.5t80.5 36.5q45 0 78 -36.5t33 -88.5q0 -51 -33 -88.5t-78 -37.5 q-48 0 -80.5 37.5t-32.5 88.5zM615 1455q0 52 33 88.5t78 36.5q47 0 79.5 -36.5t32.5 -88.5q0 -51 -32.5 -88.5t-79.5 -37.5q-45 0 -78 37.5t-33 88.5z"
         id="glyph3783" /><glyph
         unicode="Ā"
         horiz-adv-x="1279"
         d="M0 0l579 1503h111l589 -1503h-195l-179 464h-544l-172 -464h-189zM309 1741v140h662v-140h-662zM419 624h428l-219 575z"
         id="glyph3785" /><glyph
         unicode="ā"
         horiz-adv-x="1058"
         d="M86 311q0 115 61.5 190t156 118t209.5 61t224 18v14q0 135 -57.5 194t-165.5 59q-75 0 -136.5 -33t-104.5 -87l-122 86q65 88 154 129t224 41q181 0 281 -92t100 -308v-701h-158l-8 92q-56 -56 -129.5 -86.5t-161.5 -30.5q-69 0 -136 21.5t-118 63t-82 105t-31 146.5z M187 1329v139h662v-139h-662zM262 309q0 -52 19.5 -88t50.5 -59.5t68 -34t73 -10.5q79 0 145.5 33t118.5 78v333q-75 -2 -158 -11t-154 -35.5t-117 -76t-46 -129.5z"
         id="glyph3787" /><glyph
         unicode="Ă"
         horiz-adv-x="1279"
         d="M0 0l579 1503h111l589 -1503h-195l-179 464h-544l-172 -464h-189zM320 1911h142q7 -50 25 -82t41.5 -51t53 -25.5t58.5 -6.5q59 0 110.5 33t69.5 132h135q-7 -82 -37 -137t-76 -89t-101 -48.5t-110 -14.5q-54 0 -108 14.5t-98 48.5t-73 89t-32 137zM419 624h428l-219 575 z"
         id="glyph3789" /><glyph
         unicode="ă"
         horiz-adv-x="1058"
         d="M86 311q0 115 61.5 190t156 118t209.5 61t224 18v14q0 135 -57.5 194t-165.5 59q-75 0 -136.5 -33t-104.5 -87l-122 86q65 88 154 129t224 41q181 0 281 -92t100 -308v-701h-158l-8 92q-56 -56 -129.5 -86.5t-161.5 -30.5q-69 0 -136 21.5t-118 63t-82 105t-31 146.5z M218 1537h142q7 -50 25 -82t41.5 -50.5t53 -25.5t58.5 -7q59 0 110.5 33t69.5 132h135q-7 -82 -37 -137t-76 -89t-101 -48.5t-110 -14.5q-54 0 -108 14.5t-98 48.5t-73 89t-32 137zM262 309q0 -52 19.5 -88t50.5 -59.5t68 -34t73 -10.5q79 0 145.5 33t118.5 78v333 q-75 -2 -158 -11t-154 -35.5t-117 -76t-46 -129.5z"
         id="glyph3791" /><glyph
         unicode="Ą"
         horiz-adv-x="1279"
         d="M0 0l579 1503h111l589 -1503h-47q-50 -38 -90.5 -89t-40.5 -118q0 -32 16 -53.5t52 -21.5q32 0 53 9t40 21l40 -111q-58 -41 -150 -41q-86 0 -140.5 44t-54.5 132q0 73 36.5 133.5t85.5 103.5l-174 455h-544l-172 -464h-189zM419 624h428l-219 575z"
         id="glyph3793" /><glyph
         unicode="ą"
         horiz-adv-x="1058"
         d="M86 311q0 115 61.5 189t156 118t209.5 62t224 18v14q0 135 -57.5 194t-165.5 59q-75 0 -136.5 -33t-104.5 -87l-122 86q65 88 154 129t224 41q181 0 281 -92t100 -308v-701h-38q-54 -41 -92.5 -93.5t-38.5 -113.5q0 -32 15.5 -53.5t51.5 -21.5q32 0 53.5 9t39.5 21 l41 -111q-59 -41 -151 -41q-86 0 -140 44t-54 132t48.5 154.5t102.5 105.5l-4 60q-56 -56 -129.5 -86.5t-161.5 -30.5q-69 0 -136 21.5t-118 63t-82 105t-31 146.5zM262 309q0 -52 19.5 -88t50.5 -59.5t68 -34t73 -10.5q79 0 145.5 33t118.5 78v333q-75 -2 -158 -11 t-154 -35.5t-117 -76t-46 -129.5z"
         id="glyph3795" /><glyph
         unicode="Ć"
         horiz-adv-x="1281"
         d="M110 746q0 209 52 359t136.5 244.5t191.5 138.5t217 44q172 0 304.5 -83.5t198.5 -225.5l-146 -88q-20 41 -53 83t-77 74t-97 53.5t-114 21.5q-198 0 -310 -161t-112 -462q0 -147 34.5 -260.5t92.5 -191.5t138.5 -117.5t172.5 -39.5q65 0 115.5 18.5t92.5 48.5t74.5 72 t59.5 87l138 -88q-30 -54 -72.5 -108.5t-101 -97t-135 -70t-173.5 -27.5q-133 0 -247 44t-198.5 137.5t-133 240t-48.5 354.5zM495 1683l376 313l116 -117l-408 -280z"
         id="glyph3797" /><glyph
         unicode="ć"
         horiz-adv-x="1067"
         d="M103 534q0 150 43 258.5t113 177t158 100t176 31.5q90 0 158.5 -27t117 -67t79 -85t43.5 -82l-129 -81q-47 108 -119 155t-150 47q-61 0 -117.5 -28t-101.5 -81.5t-72 -132.5t-27 -181q0 -101 27 -180t73 -132.5t108.5 -82.5t131.5 -29q79 0 152 45.5t121 147.5l122 -77 q-63 -131 -172.5 -193t-231.5 -62q-94 0 -185.5 34t-161.5 104t-113 174.5t-43 246.5zM344 1309l376 313l116 -117l-408 -280z"
         id="glyph3799" /><glyph
         unicode="Ĉ"
         horiz-adv-x="1281"
         d="M110 746q0 209 52 359t136.5 244.5t191.5 138.5t217 44q172 0 304.5 -83.5t198.5 -225.5l-146 -88q-20 41 -53 83t-77 74t-97 53.5t-114 21.5q-198 0 -310 -161t-112 -462q0 -147 34.5 -260.5t92.5 -191.5t138.5 -117.5t172.5 -39.5q65 0 115.5 18.5t92.5 48.5t74.5 72 t59.5 87l138 -88q-30 -54 -72.5 -108.5t-101 -97t-135 -70t-173.5 -27.5q-133 0 -247 44t-198.5 137.5t-133 240t-48.5 354.5zM362 1668l283 323h109l284 -323l-99 -69l-239 252l-236 -252z"
         id="glyph3801" /><glyph
         unicode="ĉ"
         horiz-adv-x="1067"
         d="M103 534q0 150 43 258.5t113 177t158 100t176 31.5q90 0 158.5 -27t117 -67t79 -85t43.5 -82l-129 -81q-47 108 -119 155t-150 47q-61 0 -117.5 -28t-101.5 -81.5t-72 -132.5t-27 -181q0 -101 27 -180t73 -132.5t108.5 -82.5t131.5 -29q79 0 152 45.5t121 147.5l122 -77 q-63 -131 -172.5 -193t-231.5 -62q-94 0 -185.5 34t-161.5 104t-113 174.5t-43 246.5zM246 1294l283 323h109l284 -323l-99 -69l-239 252l-236 -252z"
         id="glyph3803" /><glyph
         unicode="Ċ"
         horiz-adv-x="1281"
         d="M110 746q0 209 52 359t136.5 244.5t191.5 138.5t217 44q172 0 304.5 -83.5t198.5 -225.5l-146 -88q-20 41 -53 83t-77 74t-97 53.5t-114 21.5q-198 0 -310 -161t-112 -462q0 -147 34.5 -260.5t92.5 -191.5t138.5 -117.5t172.5 -39.5q65 0 115.5 18.5t92.5 48.5t74.5 72 t59.5 87l138 -88q-30 -54 -72.5 -108.5t-101 -97t-135 -70t-173.5 -27.5q-133 0 -247 44t-198.5 137.5t-133 240t-48.5 354.5zM595 1829q0 56 35.5 96t86.5 40q52 0 86.5 -40t34.5 -96q0 -58 -34.5 -97.5t-86.5 -39.5q-51 0 -86.5 39.5t-35.5 97.5z"
         id="glyph3805" /><glyph
         unicode="ċ"
         horiz-adv-x="1067"
         d="M103 534q0 150 43 258.5t113 177t158 100t176 31.5q90 0 158.5 -27t117 -67t79 -85t43.5 -82l-129 -81q-47 108 -119 155t-150 47q-61 0 -117.5 -28t-101.5 -81.5t-72 -132.5t-27 -181q0 -101 27 -180t73 -132.5t108.5 -82.5t131.5 -29q79 0 152 45.5t121 147.5l122 -77 q-63 -131 -172.5 -193t-231.5 -62q-94 0 -185.5 34t-161.5 104t-113 174.5t-43 246.5zM471 1455q0 56 35.5 96t86.5 40q52 0 86.5 -40t34.5 -96q0 -58 -34.5 -97.5t-86.5 -39.5q-51 0 -86.5 39.5t-35.5 97.5z"
         id="glyph3807" /><glyph
         unicode="Č"
         horiz-adv-x="1281"
         d="M110 746q0 209 52 359t136.5 244.5t191.5 138.5t217 44q172 0 304.5 -83.5t198.5 -225.5l-146 -88q-20 41 -53 83t-77 74t-97 53.5t-114 21.5q-198 0 -310 -161t-112 -462q0 -147 34.5 -260.5t92.5 -191.5t138.5 -117.5t172.5 -39.5q65 0 115.5 18.5t92.5 48.5t74.5 72 t59.5 87l138 -88q-30 -54 -72.5 -108.5t-101 -97t-135 -70t-173.5 -27.5q-133 0 -247 44t-198.5 137.5t-133 240t-48.5 354.5zM360 1924l102 67l236 -252l239 252l99 -67l-284 -325h-109z"
         id="glyph3809" /><glyph
         unicode="č"
         horiz-adv-x="1067"
         d="M103 534q0 150 43 258.5t113 177t158 100t176 31.5q90 0 158.5 -27t117 -67t79 -85t43.5 -82l-129 -81q-47 108 -119 155t-150 47q-61 0 -117.5 -28t-101.5 -81.5t-72 -132.5t-27 -181q0 -101 27 -180t73 -132.5t108.5 -82.5t131.5 -29q79 0 152 45.5t121 147.5l122 -77 q-63 -131 -172.5 -193t-231.5 -62q-94 0 -185.5 34t-161.5 104t-113 174.5t-43 246.5zM244 1550l102 67l236 -252l239 252l99 -67l-284 -325h-109z"
         id="glyph3811" /><glyph
         unicode="Ď"
         horiz-adv-x="1408"
         d="M183 0v1503h387q88 0 182.5 -15t175.5 -52q82 -39 149 -99t115.5 -143t77 -188t28.5 -234q0 -157 -36.5 -282t-100.5 -217.5t-151.5 -153.5t-189.5 -89q-52 -16 -123 -23t-127 -7h-387zM336 1924l102 67l236 -252l239 252l99 -67l-284 -325h-109zM363 155h185q49 0 112 5 t116 27q67 27 128 74.5t105.5 117.5t71 164t26.5 220q0 196 -60 316t-164 187q-65 43 -154 62.5t-172 19.5h-194v-1193z"
         id="glyph3813" /><glyph
         unicode="ď"
         horiz-adv-x="1180"
         d="M103 548q0 103 33 203t97 177.5t161 125t225 47.5q82 0 140 -12t99 -27v441l174 29v-1532h-160l-14 88q-58 -60 -127 -86.5t-150 -26.5q-115 0 -204 44t-149.5 121t-92.5 181.5t-32 226.5zM275 538q0 -90 20.5 -167.5t61.5 -134t103 -89.5t148 -33q67 0 132.5 29 t117.5 93v674q-13 8 -36.5 17.5t-53 17.5t-61.5 12t-60 4q-95 0 -165 -35.5t-116 -95.5t-68.5 -136.5t-22.5 -155.5zM1159 1120v383h168l-63 -383h-105z"
         id="glyph3815" /><glyph
         unicode="Đ"
         horiz-adv-x="1408"
         d="M0 712v139h183v652h389q86 0 181.5 -15t174.5 -52q162 -78 266 -243t104 -421q0 -157 -36.5 -282t-99.5 -217.5t-150.5 -153.5t-188.5 -89q-52 -16 -123.5 -23t-127.5 -7h-389v712h-183zM363 155h185q52 0 113.5 5t114.5 27q67 27 128 74.5t107 116.5t72 164t26 221 q0 196 -61 316t-165 187q-65 43 -153 62.5t-171 19.5h-196v-497h360v-139h-360v-557z"
         id="glyph3817" /><glyph
         unicode="đ"
         horiz-adv-x="1180"
         d="M103 548q0 103 33 203t97 177.5t161 125t225 47.5q82 0 140 -12t99 -27v170h-315v140h315v131l174 29v-160h146v-140h-146v-1232h-160l-14 88q-58 -60 -127 -86.5t-150 -26.5q-115 0 -204 44t-149.5 121t-92.5 181.5t-32 226.5zM275 538q0 -90 20.5 -167.5t61.5 -134 t103 -89.5t148 -33q67 0 132.5 29t117.5 93v674q-13 8 -36.5 17.5t-53 17.5t-61.5 12t-60 4q-95 0 -165 -35.5t-116 -95.5t-68.5 -136.5t-22.5 -155.5z"
         id="glyph3819" /><glyph
         unicode="Ē"
         horiz-adv-x="1157"
         d="M183 0v1503h876v-155h-696v-483h497v-155h-499v-555h752v-155h-930zM294 1741v140h662v-140h-662z"
         id="glyph3821" /><glyph
         unicode="ē"
         horiz-adv-x="1144"
         d="M103 543q0 129 35.5 231.5t97 175.5t150.5 112t197 39q120 0 209 -40t147.5 -113.5t88 -176t29.5 -223.5h-782q0 -205 92.5 -319.5t268.5 -114.5q101 0 171 50t113 122l114 -77q-58 -101 -151.5 -167.5t-252.5 -66.5q-122 0 -218 37.5t-165 108t-106.5 177t-37.5 245.5z M270 1329v139h662v-139h-662zM290 685h570q-2 70 -27 122.5t-62.5 88t-88 52.5t-99.5 17q-108 0 -185.5 -64.5t-107.5 -215.5z"
         id="glyph3823" /><glyph
         unicode="Ĕ"
         horiz-adv-x="1157"
         d="M183 0v1503h876v-155h-696v-483h497v-155h-499v-555h752v-155h-930zM311 1911h142q7 -50 25 -82t41.5 -51t53 -25.5t58.5 -6.5q59 0 110.5 33t69.5 132h135q-7 -82 -37 -137t-76 -89t-101 -48.5t-110 -14.5q-54 0 -108 14.5t-98 48.5t-73 89t-32 137z"
         id="glyph3825" /><glyph
         unicode="ĕ"
         horiz-adv-x="1144"
         d="M103 543q0 129 35.5 231.5t97 175.5t150.5 112t197 39q120 0 209 -40t147.5 -113.5t88 -176t29.5 -223.5h-782q0 -205 92.5 -319.5t268.5 -114.5q101 0 171 50t113 122l114 -77q-58 -101 -151.5 -167.5t-252.5 -66.5q-122 0 -218 37.5t-165 108t-106.5 177t-37.5 245.5z M255 1537h142q7 -50 25 -82t41.5 -50.5t53 -25.5t58.5 -7q59 0 110.5 33t69.5 132h135q-7 -82 -37 -137t-76 -89t-101 -48.5t-110 -14.5q-54 0 -108 14.5t-98 48.5t-73 89t-32 137zM290 685h570q-2 70 -27 122.5t-62.5 88t-88 52.5t-99.5 17q-108 0 -185.5 -64.5 t-107.5 -215.5z"
         id="glyph3827" /><glyph
         unicode="Ė"
         horiz-adv-x="1157"
         d="M183 0v1503h876v-155h-696v-483h497v-155h-499v-555h752v-155h-930zM496 1829q0 56 35.5 96t86.5 40q52 0 86.5 -40t34.5 -96q0 -58 -34.5 -97.5t-86.5 -39.5q-51 0 -86.5 39.5t-35.5 97.5z"
         id="glyph3829" /><glyph
         unicode="ė"
         horiz-adv-x="1144"
         d="M103 543q0 129 35.5 231.5t97 175.5t150.5 112t197 39q120 0 209 -40t147.5 -113.5t88 -176t29.5 -223.5h-782q0 -205 92.5 -319.5t268.5 -114.5q101 0 171 50t113 122l114 -77q-58 -101 -151.5 -167.5t-252.5 -66.5q-122 0 -218 37.5t-165 108t-106.5 177t-37.5 245.5z M290 685h570q-2 70 -27 122.5t-62.5 88t-88 52.5t-99.5 17q-108 0 -185.5 -64.5t-107.5 -215.5zM447 1453q0 56 35.5 95.5t86.5 39.5q52 0 86.5 -39t34.5 -96q0 -56 -34.5 -95.5t-86.5 -39.5q-51 0 -86.5 39.5t-35.5 95.5z"
         id="glyph3831" /><glyph
         unicode="Ę"
         horiz-adv-x="1157"
         d="M183 0v1503h876v-155h-696v-483h497v-155h-499v-555h752v-155h-51q-50 -38 -90.5 -89t-40.5 -118q0 -32 15 -53.5t52 -21.5q32 0 53 9t39 21l41 -111q-59 -41 -151 -41q-86 0 -140 44t-54 132q0 65 30.5 124t79.5 104h-713z"
         id="glyph3833" /><glyph
         unicode="ę"
         horiz-adv-x="1144"
         d="M103 543q0 129 35.5 231.5t97 175.5t150.5 112t197 39q120 0 209 -40t147.5 -113.5t88 -176t29.5 -223.5h-782q0 -203 92.5 -318.5t268.5 -115.5q101 0 171 50t113 122l114 -77q-69 -122 -187 -189q-65 -39 -113.5 -99.5t-48.5 -127.5q0 -32 15.5 -53.5t51.5 -21.5 q32 0 53.5 9t39.5 21l41 -111q-28 -18 -66 -29.5t-85 -11.5q-86 0 -140 44t-54 132q0 63 25 114t62 89q-243 2 -384 145.5t-141 422.5zM290 685h570q-2 70 -27 122.5t-62.5 88t-88 52.5t-99.5 17q-108 0 -185.5 -64.5t-107.5 -215.5z"
         id="glyph3835" /><glyph
         unicode="Ě"
         horiz-adv-x="1157"
         d="M183 0v1503h876v-155h-696v-483h497v-155h-499v-555h752v-155h-930zM289 1924l102 67l236 -252l239 252l99 -67l-284 -325h-109z"
         id="glyph3837" /><glyph
         unicode="ě"
         horiz-adv-x="1144"
         d="M103 543q0 129 35.5 231.5t97 175.5t150.5 112t197 39q120 0 209 -40t147.5 -113.5t88 -176t29.5 -223.5h-782q0 -205 92.5 -319.5t268.5 -114.5q101 0 171 50t113 122l114 -77q-58 -101 -151.5 -167.5t-252.5 -66.5q-122 0 -218 37.5t-165 108t-106.5 177t-37.5 245.5z M248 1550l102 67l236 -252l239 252l99 -67l-284 -325h-109zM290 685h570q-2 70 -27 122.5t-62.5 88t-88 52.5t-99.5 17q-108 0 -185.5 -64.5t-107.5 -215.5z"
         id="glyph3839" /><glyph
         unicode="Ĝ"
         horiz-adv-x="1344"
         d="M110 746q0 212 51 360.5t135.5 243t194 138.5t225.5 44q101 0 178 -20t135.5 -58.5t101.5 -92.5t77 -122l-144 -87q-52 101 -132.5 160.5t-215.5 59.5q-79 0 -154.5 -36t-132.5 -113t-92.5 -196t-35.5 -283q0 -147 36.5 -262t98.5 -194t144 -119t175 -40q101 0 175 12 t122 28v392h-248v157h428v-662q-34 -13 -84.5 -28t-112 -28t-134 -21.5t-149.5 -8.5q-133 0 -249 44t-203.5 137.5t-138.5 240t-51 354.5zM401 1668l283 323h109l284 -323l-99 -69l-239 252l-236 -252z"
         id="glyph3841" /><glyph
         unicode="ĝ"
         horiz-adv-x="1186"
         d="M103 546q0 126 42 228.5t116.5 175.5t178 112t229.5 39q86 0 187 -8.5t176 -20.5v-1047q0 -254 -118.5 -367t-339.5 -113q-142 0 -249.5 41.5t-182.5 140.5l122 97q99 -140 310 -140q149 0 216.5 75.5t67.5 210.5v77q-52 -27 -118.5 -43.5t-139.5 -16.5q-104 0 -194 38 t-158 110t-106.5 176t-38.5 235zM277 541q0 -88 23.5 -164t70 -129.5t114 -85t153.5 -31.5q63 0 121 20.5t99 44.5v750q-32 7 -81 11t-106 4q-73 0 -143 -25.5t-126 -78.5t-90.5 -131.5t-34.5 -184.5zM282 1294l283 323h109l284 -323l-99 -69l-239 252l-236 -252z"
         id="glyph3843" /><glyph
         unicode="Ğ"
         horiz-adv-x="1344"
         d="M110 746q0 212 51 360.5t135.5 243t194 138.5t225.5 44q101 0 178 -20t135.5 -58.5t101.5 -92.5t77 -122l-144 -87q-52 101 -132.5 160.5t-215.5 59.5q-79 0 -154.5 -36t-132.5 -113t-92.5 -196t-35.5 -283q0 -147 36.5 -262t98.5 -194t144 -119t175 -40q101 0 175 12 t122 28v392h-248v157h428v-662q-34 -13 -84.5 -28t-112 -28t-134 -21.5t-149.5 -8.5q-133 0 -249 44t-203.5 137.5t-138.5 240t-51 354.5zM389 1911h142q7 -50 25 -82t41.5 -51t53 -25.5t58.5 -6.5q59 0 110.5 33t69.5 132h135q-7 -82 -37 -137t-76 -89t-101 -48.5 t-110 -14.5q-54 0 -108 14.5t-98 48.5t-73 89t-32 137z"
         id="glyph3845" /><glyph
         unicode="ğ"
         horiz-adv-x="1186"
         d="M103 546q0 126 42 228.5t116.5 175.5t178 112t229.5 39q86 0 187 -8.5t176 -20.5v-1047q0 -254 -118.5 -367t-339.5 -113q-142 0 -249.5 41.5t-182.5 140.5l122 97q99 -140 310 -140q149 0 216.5 75.5t67.5 210.5v77q-52 -27 -118.5 -43.5t-139.5 -16.5q-104 0 -194 38 t-158 110t-106.5 176t-38.5 235zM277 541q0 -88 23.5 -164t70 -129.5t114 -85t153.5 -31.5q63 0 121 20.5t99 44.5v750q-32 7 -81 11t-106 4q-73 0 -143 -25.5t-126 -78.5t-90.5 -131.5t-34.5 -184.5zM302 1537h142q7 -50 25 -82t41.5 -50.5t53 -25.5t58.5 -7q59 0 110.5 33 t69.5 132h135q-7 -82 -37 -137t-76 -89t-101 -48.5t-110 -14.5q-54 0 -108 14.5t-98 48.5t-73 89t-32 137z"
         id="glyph3847" /><glyph
         unicode="Ġ"
         horiz-adv-x="1344"
         d="M110 746q0 212 51 360.5t135.5 243t194 138.5t225.5 44q101 0 178 -20t135.5 -58.5t101.5 -92.5t77 -122l-144 -87q-52 101 -132.5 160.5t-215.5 59.5q-79 0 -154.5 -36t-132.5 -113t-92.5 -196t-35.5 -283q0 -147 36.5 -262t98.5 -194t144 -119t175 -40q101 0 175 12 t122 28v392h-248v157h428v-662q-34 -13 -84.5 -28t-112 -28t-134 -21.5t-149.5 -8.5q-133 0 -249 44t-203.5 137.5t-138.5 240t-51 354.5zM617 1829q0 56 35.5 96t86.5 40q52 0 86.5 -40t34.5 -96q0 -58 -34.5 -97.5t-86.5 -39.5q-51 0 -86.5 39.5t-35.5 97.5z"
         id="glyph3849" /><glyph
         unicode="ġ"
         horiz-adv-x="1186"
         d="M103 546q0 126 42 228.5t116.5 175.5t178 112t229.5 39q86 0 187 -8.5t176 -20.5v-1047q0 -254 -118.5 -367t-339.5 -113q-142 0 -249.5 41.5t-182.5 140.5l122 97q99 -140 310 -140q149 0 216.5 75.5t67.5 210.5v77q-52 -27 -118.5 -43.5t-139.5 -16.5q-104 0 -194 38 t-158 110t-106.5 176t-38.5 235zM277 541q0 -88 23.5 -164t70 -129.5t114 -85t153.5 -31.5q63 0 121 20.5t99 44.5v750q-32 7 -81 11t-106 4q-73 0 -143 -25.5t-126 -78.5t-90.5 -131.5t-34.5 -184.5zM498 1455q0 56 35.5 96t86.5 40q52 0 86.5 -40t34.5 -96 q0 -58 -34.5 -97.5t-86.5 -39.5q-51 0 -86.5 39.5t-35.5 97.5z"
         id="glyph3851" /><glyph
         unicode="Ģ"
         horiz-adv-x="1344"
         d="M110 746q0 212 51 360.5t135.5 243t194 138.5t225.5 44q101 0 178 -20t135.5 -58.5t101.5 -92.5t77 -122l-144 -87q-52 101 -132.5 160.5t-215.5 59.5q-79 0 -154.5 -36t-132.5 -113t-92.5 -196t-35.5 -283q0 -147 36.5 -262t98.5 -194t144 -119t175 -40q101 0 175 12 t122 28v392h-248v157h428v-662q-34 -13 -84.5 -28t-112 -28t-134 -21.5t-149.5 -8.5q-133 0 -249 44t-203.5 137.5t-138.5 240t-51 354.5zM554 -392l115 293h185l-163 -293h-137z"
         id="glyph3853" /><glyph
         unicode="ģ"
         horiz-adv-x="1186"
         d="M103 546q0 126 42 228.5t116.5 175.5t178 112t229.5 39q86 0 187 -8.5t176 -20.5v-1047q0 -254 -118.5 -367t-339.5 -113q-142 0 -249.5 41.5t-182.5 140.5l122 97q99 -140 310 -140q149 0 216.5 75.5t67.5 210.5v77q-52 -27 -118.5 -43.5t-139.5 -16.5q-104 0 -194 38 t-158 110t-106.5 176t-38.5 235zM277 541q0 -88 23.5 -164t70 -129.5t114 -85t153.5 -31.5q63 0 121 20.5t99 44.5v750q-32 7 -81 11t-106 4q-73 0 -143 -25.5t-126 -78.5t-90.5 -131.5t-34.5 -184.5zM516 1282l163 293h137l-115 -293h-185z"
         id="glyph3855" /><glyph
         unicode="Ĥ"
         horiz-adv-x="1475"
         d="M183 0v1503h180v-652h752v652h179v-1503h-179v692h-752v-692h-180zM426 1668l283 323h109l284 -323l-99 -69l-239 252l-236 -252z"
         id="glyph3857" /><glyph
         unicode="ĥ"
         horiz-adv-x="1213"
         d="M155 0v1503l174 29v-543q65 47 148.5 79.5t186.5 32.5q219 0 310.5 -110t91.5 -322v-669h-176v671q0 149 -61 219.5t-197 70.5q-85 0 -165 -39t-138 -82v-840h-174zM207 1668l283 323h109l284 -323l-99 -69l-239 252l-236 -252z"
         id="glyph3859" /><glyph
         unicode="Ħ"
         horiz-adv-x="1475"
         d="M-18 1099v140h201v264h180v-264h752v264h179v-264h200v-140h-200v-1099h-179v692h-752v-692h-180v1099h-201zM363 851h752v248h-752v-248z"
         id="glyph3861" /><glyph
         unicode="ħ"
         horiz-adv-x="1213"
         d="M7 1232v140h148v131l174 29v-160h449v-140h-449v-243q65 47 148.5 79.5t186.5 32.5q219 0 310.5 -110t91.5 -322v-669h-176v671q0 149 -61 219.5t-197 70.5q-85 0 -165 -39t-138 -82v-840h-174v1232h-148z"
         id="glyph3863" /><glyph
         unicode="Ĩ"
         horiz-adv-x="544"
         d="M-113 1707q32 101 94 162t138 61q45 0 87 -20t80.5 -44t73 -44t66.5 -20q34 0 67.5 29.5t65.5 103.5l110 -54q-36 -103 -96.5 -162t-133.5 -59q-45 0 -88 20.5t-81 44t-75.5 44t-71.5 20.5q-36 0 -65 -30.5t-60 -102.5zM183 0v1503h180v-1503h-180z"
         id="glyph3865" /><glyph
         unicode="ĩ"
         horiz-adv-x="484"
         d="M-144 1333q32 101 94 162t138 61q45 0 87 -20t80.5 -44t73 -44t66.5 -20q34 0 67.5 29.5t65.5 103.5l110 -54q-36 -103 -96.5 -162t-133.5 -59q-45 0 -88 20.5t-81 44t-75.5 44t-71.5 20.5q-36 0 -65 -30.5t-60 -102.5zM155 0v1059l174 31v-1090h-174z"
         id="glyph3867" /><glyph
         unicode="Ī"
         horiz-adv-x="544"
         d="M-63 1741v140h662v-140h-662zM183 0v1503h180v-1503h-180z"
         id="glyph3869" /><glyph
         unicode="ī"
         horiz-adv-x="484"
         d="M-76 1329v139h662v-139h-662zM155 0v1059l174 31v-1090h-174z"
         id="glyph3871" /><glyph
         unicode="Ĭ"
         horiz-adv-x="544"
         d="M-41 1911h142q7 -50 25 -82t41.5 -51t53 -25.5t58.5 -6.5q59 0 110.5 33t69.5 132h135q-7 -82 -37 -137t-76 -89t-101 -48.5t-110 -14.5q-54 0 -108 14.5t-98 48.5t-73 89t-32 137zM183 0v1503h180v-1503h-180z"
         id="glyph3873" /><glyph
         unicode="ĭ"
         horiz-adv-x="484"
         d="M-70 1537h142q7 -50 25 -82t41.5 -50.5t53 -25.5t58.5 -7q59 0 110.5 33t69.5 132h135q-7 -82 -37 -137t-76 -89t-101 -48.5t-110 -14.5q-54 0 -108 14.5t-98 48.5t-73 89t-32 137zM155 0v1059l174 31v-1090h-174z"
         id="glyph3875" /><glyph
         unicode="Į"
         horiz-adv-x="544"
         d="M52 -228q0 70 36 134t95 109v1488h180v-1503h-36q-50 -38 -90.5 -89t-40.5 -118q0 -32 16 -53.5t52 -21.5q32 0 53 9t39 21l40 -111q-58 -41 -151 -41q-85 0 -139 44t-54 132z"
         id="glyph3877" /><glyph
         unicode="į"
         horiz-adv-x="484"
         d="M15 -228q0 73 38.5 135.5t101.5 114.5v1037l174 31v-1090h-39q-49 -38 -89.5 -89t-40.5 -118q0 -32 15.5 -53.5t52.5 -21.5q32 0 52.5 9t39.5 21l41 -111q-59 -41 -152 -41q-86 0 -140 44t-54 132zM129 1374q0 52 33.5 90.5t80.5 38.5t81.5 -38.5t34.5 -90.5 q0 -54 -34.5 -91t-81.5 -37t-80.5 37t-33.5 91z"
         id="glyph3879" /><glyph
         unicode="İ"
         horiz-adv-x="544"
         d="M157 1829q0 56 35.5 96t86.5 40q52 0 86.5 -40t34.5 -96q0 -58 -34.5 -97.5t-86.5 -39.5q-51 0 -86.5 39.5t-35.5 97.5zM183 0v1503h180v-1503h-180z"
         id="glyph3881" /><glyph
         unicode="ı"
         horiz-adv-x="484"
         d="M155 0v1059l174 31v-1090h-174z"
         id="glyph3883" /><glyph
         unicode="Ĳ"
         horiz-adv-x="1096"
         d="M183 0v1503h180v-1503h-180zM458 -151q135 22 206 79t71 164v1411h181v-1406q0 -185 -114 -280.5t-312 -117.5z"
         id="glyph3885" /><glyph
         unicode="ĳ"
         horiz-adv-x="950"
         d="M129 1374q0 52 33.5 90.5t80.5 38.5t81.5 -38.5t34.5 -90.5q0 -54 -34.5 -91t-81.5 -37t-80.5 37t-33.5 91zM155 0v1059l174 31v-1090h-174zM464 -320q41 30 71 60t49.5 66.5t28 82.5t8.5 107v1063l174 31v-1094q0 -174 -65.5 -274t-179.5 -165zM593 1374q0 52 33.5 90.5 t80.5 38.5q48 0 81.5 -38.5t33.5 -90.5q0 -54 -33.5 -91t-81.5 -37q-47 0 -80.5 37t-33.5 91z"
         id="glyph3887" /><glyph
         unicode="Ĵ"
         horiz-adv-x="537"
         d="M-88 -151q135 22 206 79t71 164v1411h181v-1406q0 -185 -114 -280.5t-312 -117.5zM-57 1668l283 323h109l284 -323l-99 -69l-239 252l-236 -252z"
         id="glyph3889" /><glyph
         unicode="ĵ"
         horiz-adv-x="477"
         d="M-92 1294l283 323h109l284 -323l-99 -69l-239 252l-236 -252zM-9 -320q41 30 71 60t49.5 66.5t28 82.5t8.5 107v1063l174 31v-1094q0 -174 -65.5 -274t-179.5 -165z"
         id="glyph3891" /><glyph
         unicode="Ķ"
         horiz-adv-x="1265"
         d="M183 0v1503h180v-660l647 660h213l-578 -591l610 -912h-217l-520 782l-155 -160v-622h-180zM495 -392l115 293h185l-163 -293h-137z"
         id="glyph3893" /><glyph
         unicode="ķ"
         horiz-adv-x="1073"
         d="M155 0v1503l174 29v-865l434 408h221l-367 -347l462 -728h-200l-391 608l-159 -146v-462h-174zM399 -392l115 293h185l-163 -293h-137z"
         id="glyph3895" /><glyph
         unicode="ĸ"
         horiz-adv-x="1073"
         d="M155 0v1059l174 31v-544l453 529h202l-367 -433l462 -642h-200l-379 514l-171 -200v-314h-174z"
         id="glyph3897" /><glyph
         unicode="Ĺ"
         horiz-adv-x="1103"
         d="M183 0v1503h180v-1348h696v-155h-876zM189 1683l376 313l116 -117l-408 -280z"
         id="glyph3899" /><glyph
         unicode="ĺ"
         horiz-adv-x="484"
         d="M50 1683l376 313l116 -117l-408 -280zM155 0v1503l174 29v-1532h-174z"
         id="glyph3901" /><glyph
         unicode="Ļ"
         horiz-adv-x="1103"
         d="M183 0v1503h180v-1348h696v-155h-876zM426 -392l115 293h185l-163 -293h-137z"
         id="glyph3903" /><glyph
         unicode="ļ"
         horiz-adv-x="484"
         d="M27 -392l115 293h185l-163 -293h-137zM155 0v1503l174 29v-1532h-174z"
         id="glyph3905" /><glyph
         unicode="Ľ"
         horiz-adv-x="1103"
         d="M183 0v1503h180v-1348h696v-155h-876zM521 1120v383h168l-63 -383h-105z"
         id="glyph3907" /><glyph
         unicode="ľ"
         horiz-adv-x="578"
         d="M155 0v1503l174 29v-1532h-174zM456 1120v383h168l-63 -383h-105z"
         id="glyph3909" /><glyph
         unicode="Ŀ"
         horiz-adv-x="1103"
         d="M183 0v1503h180v-1348h696v-155h-876zM688 819q0 56 35.5 95.5t86.5 39.5q52 0 87.5 -39.5t35.5 -95.5t-35.5 -96t-87.5 -40q-51 0 -86.5 40t-35.5 96z"
         id="glyph3911" /><glyph
         unicode="ŀ"
         horiz-adv-x="690"
         d="M155 0v1503l174 29v-1532h-174zM466 819q0 56 35.5 95.5t86.5 39.5q52 0 87.5 -39.5t35.5 -95.5t-35.5 -96t-87.5 -40q-51 0 -86.5 40t-35.5 96z"
         id="glyph3913" /><glyph
         unicode="Ł"
         horiz-adv-x="1103"
         d="M-60 642l243 162v699h180v-581l273 179l69 -108l-342 -223v-615h696v-155h-876v653l-181 -119z"
         id="glyph3915" /><glyph
         unicode="ł"
         horiz-adv-x="520"
         d="M-69 628l241 156v719l172 29v-636l176 114l71 -111l-247 -158v-741h-172v630l-179 -114z"
         id="glyph3917" /><glyph
         unicode="Ń"
         horiz-adv-x="1481"
         d="M183 0v1503h182l757 -1120v1120h178v-1503h-133l-806 1191v-1191h-178zM590 1683l376 313l116 -117l-408 -280z"
         id="glyph3919" /><glyph
         unicode="ń"
         horiz-adv-x="1217"
         d="M155 0v1062l159 26l13 -99q65 49 154 80.5t186 31.5q221 0 312 -109t91 -323v-669h-174v673q0 135 -60 211.5t-198 76.5q-86 0 -168.5 -36.5t-140.5 -81.5v-843h-174zM392 1309l376 313l116 -117l-408 -280z"
         id="glyph3921" /><glyph
         unicode="Ņ"
         horiz-adv-x="1481"
         d="M183 0v1503h182l757 -1120v1120h178v-1503h-133l-806 1191v-1191h-178zM603 -392l115 293h185l-163 -293h-137z"
         id="glyph3923" /><glyph
         unicode="ņ"
         horiz-adv-x="1217"
         d="M155 0v1062l159 26l13 -99q65 49 154 80.5t186 31.5q221 0 312 -109t91 -323v-669h-174v673q0 135 -60 211.5t-198 76.5q-86 0 -168.5 -36.5t-140.5 -81.5v-843h-174zM444 -392l115 293h185l-163 -293h-137z"
         id="glyph3925" /><glyph
         unicode="Ň"
         horiz-adv-x="1481"
         d="M183 0v1503h182l757 -1120v1120h178v-1503h-133l-806 1191v-1191h-178zM426 1924l102 67l236 -252l239 252l99 -67l-284 -325h-109z"
         id="glyph3927" /><glyph
         unicode="ň"
         horiz-adv-x="1217"
         d="M155 0v1062l159 26l13 -99q65 49 154 80.5t186 31.5q221 0 312 -109t91 -323v-669h-174v673q0 135 -60 211.5t-198 76.5q-86 0 -168.5 -36.5t-140.5 -81.5v-843h-174zM293 1550l102 67l236 -252l239 252l99 -67l-284 -325h-109z"
         id="glyph3929" /><glyph
         unicode="ŉ"
         horiz-adv-x="1317"
         d="M129 1169q36 13 78 42q43 29 61 59q-17 12 -41.5 41.5t-24.5 83.5q0 51 26.5 87.5t78.5 35.5q52 0 78 -35q27 -37 27 -93q0 -51 -24 -96.5t-60 -81.5q-38 -36 -84 -63.5t-93 -41.5zM254 0v1062l158 26l14 -99q65 49 154 80.5t186 31.5q221 0 312 -109t91 -323v-669h-173 v673q0 135 -61 211.5t-198 76.5q-86 0 -168.5 -36.5t-140.5 -81.5v-843h-174z"
         id="glyph3931" /><glyph
         unicode="Ŋ"
         horiz-adv-x="1481"
         d="M183 0v1503h182l757 -1120v1120h178v-1507q0 -174 -65.5 -274t-180.5 -165l-85 123q41 30 71 60t49.5 66.5t28 82.5t8.5 107v62l-765 1133v-1191h-178z"
         id="glyph3933" /><glyph
         unicode="ŋ"
         horiz-adv-x="1217"
         d="M155 0v1062l159 26l13 -99q65 49 154 80.5t186 31.5q221 0 312 -109t91 -323v-673q0 -174 -65.5 -274t-179.5 -165l-86 123q41 30 71 60t49.5 66.5t28 82.5t8.5 107v677q0 135 -60 211.5t-198 76.5q-86 0 -168.5 -36.5t-140.5 -81.5v-843h-174z"
         id="glyph3935" /><glyph
         unicode="Ō"
         horiz-adv-x="1488"
         d="M110 752q0 147 37.5 286.5t115 250t197 177t286.5 66.5q165 0 283.5 -66.5t197 -177t115 -250t36.5 -286.5q0 -146 -36.5 -287t-115 -250t-197.5 -177t-283 -68q-167 0 -286.5 68t-197 177t-115 250t-37.5 287zM299 752q0 -116 27.5 -228t82.5 -200t138 -140.5t199 -52.5 q114 0 197.5 52.5t137.5 140.5t81 200t27 228q0 115 -26 226.5t-79.5 199.5t-138.5 141t-199 53q-115 0 -199.5 -53t-140 -141t-81.5 -199.5t-26 -226.5zM408 1741v140h662v-140h-662z"
         id="glyph3937" /><glyph
         unicode="ō"
         horiz-adv-x="1206"
         d="M103 543q0 106 31 206t93.5 178.5t156 126t220.5 47.5q124 0 218.5 -48.5t156.5 -127t93.5 -180t31.5 -207.5t-31.5 -207t-93.5 -179.5t-156.5 -127.5t-218.5 -49t-217.5 49t-156.5 128.5t-95 182t-32 208.5zM275 543q0 -81 20.5 -157.5t61.5 -136.5t103 -97.5t144 -37.5 q84 0 145.5 37.5t103 97.5t62 136.5t20.5 155.5t-20.5 155t-62 136t-103 96.5t-145.5 36.5t-146 -36.5t-102 -96.5t-60.5 -135t-20.5 -154zM294 1329v139h662v-139h-662z"
         id="glyph3939" /><glyph
         unicode="Ŏ"
         horiz-adv-x="1488"
         d="M110 752q0 147 37.5 286.5t115 250t197 177t286.5 66.5q165 0 283.5 -66.5t197 -177t115 -250t36.5 -286.5q0 -146 -36.5 -287t-115 -250t-197.5 -177t-283 -68q-167 0 -286.5 68t-197 177t-115 250t-37.5 287zM299 752q0 -116 27.5 -228t82.5 -200t138 -140.5t199 -52.5 q114 0 197.5 52.5t137.5 140.5t81 200t27 228q0 115 -26 226.5t-79.5 199.5t-138.5 141t-199 53q-115 0 -199.5 -53t-140 -141t-81.5 -199.5t-26 -226.5zM425 1911h142q7 -50 25 -82t41.5 -51t53 -25.5t58.5 -6.5q59 0 110.5 33t69.5 132h135q-7 -82 -37 -137t-76 -89 t-101 -48.5t-110 -14.5q-54 0 -108 14.5t-98 48.5t-73 89t-32 137z"
         id="glyph3941" /><glyph
         unicode="ŏ"
         horiz-adv-x="1206"
         d="M103 543q0 106 31 206t93.5 178.5t156 126t220.5 47.5q124 0 218.5 -48.5t156.5 -127t93.5 -180t31.5 -207.5t-31.5 -207t-93.5 -179.5t-156.5 -127.5t-218.5 -49t-217.5 49t-156.5 128.5t-95 182t-32 208.5zM275 543q0 -81 20.5 -157.5t61.5 -136.5t103 -97.5t144 -37.5 q84 0 145.5 37.5t103 97.5t62 136.5t20.5 155.5t-20.5 155t-62 136t-103 96.5t-145.5 36.5t-146 -36.5t-102 -96.5t-60.5 -135t-20.5 -154zM286 1537h142q7 -50 25 -82t41.5 -50.5t53 -25.5t58.5 -7q59 0 110.5 33t69.5 132h135q-7 -82 -37 -137t-76 -89t-101 -48.5 t-110 -14.5q-54 0 -108 14.5t-98 48.5t-73 89t-32 137z"
         id="glyph3943" /><glyph
         unicode="Ő"
         horiz-adv-x="1488"
         d="M110 752q0 147 37.5 286.5t115 250t197 177t286.5 66.5q165 0 283.5 -66.5t197 -177t115 -250t36.5 -286.5q0 -146 -36.5 -287t-115 -250t-197.5 -177t-283 -68q-167 0 -286.5 68t-197 177t-115 250t-37.5 287zM299 752q0 -116 27.5 -228t82.5 -200t138 -140.5t199 -52.5 q114 0 197.5 52.5t137.5 140.5t81 200t27 228q0 115 -26 226.5t-79.5 199.5t-138.5 141t-199 53q-115 0 -199.5 -53t-140 -141t-81.5 -199.5t-26 -226.5zM385 1683l376 313l115 -117l-410 -280zM802 1683l374 313l117 -117l-410 -280z"
         id="glyph3945" /><glyph
         unicode="ő"
         horiz-adv-x="1206"
         d="M103 543q0 106 31 206t93.5 178.5t156 126t220.5 47.5q124 0 218.5 -48.5t156.5 -127t93.5 -180t31.5 -207.5t-31.5 -207t-93.5 -179.5t-156.5 -127.5t-218.5 -49t-217.5 49t-156.5 128.5t-95 182t-32 208.5zM232 1309l376 313l115 -117l-410 -280zM275 543 q0 -81 20.5 -157.5t61.5 -136.5t103 -97.5t144 -37.5q84 0 145.5 37.5t103 97.5t62 136.5t20.5 155.5t-20.5 155t-62 136t-103 96.5t-145.5 36.5t-146 -36.5t-102 -96.5t-60.5 -135t-20.5 -154zM649 1309l374 313l117 -117l-410 -280z"
         id="glyph3947" /><glyph
         unicode="Œ"
         horiz-adv-x="1971"
         d="M110 772q0 354 208.5 542.5t593.5 188.5h951v-155h-653v-483h454v-155h-454v-555h705v-155h-1003q-192 0 -340 53t-250.5 153.5t-157 243.5t-54.5 322zM299 763q0 -299 164.5 -453.5t456.5 -154.5h107v1193h-117q-293 0 -452 -145.5t-159 -439.5z"
         id="glyph3949" /><glyph
         unicode="œ"
         horiz-adv-x="1868"
         d="M103 543q0 106 27 206t85 178.5t149 126t217 47.5q77 0 137 -16.5t106 -44.5t79.5 -66.5t57.5 -81.5q52 86 140 147.5t226 61.5q116 0 203 -42.5t142.5 -117t82.5 -176t27 -217.5h-739q0 -97 20.5 -177.5t61 -136.5t103.5 -88t150 -32q97 0 159 45.5t101 117.5l121 -65 q-58 -108 -157 -172.5t-228 -64.5q-157 0 -256 60t-153 154q-59 -94 -154 -154t-232 -60q-125 0 -214.5 49t-147 128.5t-86 182t-28.5 208.5zM275 543q0 -81 17 -157.5t53 -136.5t94.5 -97.5t139.5 -37.5q83 0 141 37.5t94.5 97.5t54 136.5t17.5 155.5t-17.5 155t-54 136 t-94.5 96.5t-141 36.5q-84 0 -141 -36.5t-93 -96.5t-53 -135t-17 -154zM1043 685h543q-6 142 -81 211t-178 69q-104 0 -184.5 -72.5t-99.5 -207.5z"
         id="glyph3951" /><glyph
         unicode="Ŕ"
         horiz-adv-x="1240"
         d="M183 0v1503h481q252 0 372 -113t120 -298q0 -99 -28.5 -172t-79 -124.5t-119.5 -82t-147 -44.5l409 -669h-204l-406 658h-218v-658h-180zM363 813h290q314 0 314 279q0 129 -77 192.5t-221 63.5h-306v-535zM369 1683l376 313l116 -117l-408 -280z"
         id="glyph3953" /><glyph
         unicode="ŕ"
         horiz-adv-x="724"
         d="M155 0v1062l156 26l16 -108q43 45 110.5 83t136.5 38q50 0 91.5 -6.5t64.5 -13.5l-32 -159q-60 25 -141 24q-65 0 -125 -36t-103 -74v-836h-174zM241 1309l376 313l116 -117l-408 -280z"
         id="glyph3955" /><glyph
         unicode="Ŗ"
         horiz-adv-x="1240"
         d="M183 0v1503h481q252 0 372 -113t120 -298q0 -99 -28.5 -172t-79 -124.5t-119.5 -82t-147 -44.5l409 -669h-204l-406 658h-218v-658h-180zM363 813h290q314 0 314 279q0 129 -77 192.5t-221 63.5h-306v-535zM482 -392l115 293h185l-163 -293h-137z"
         id="glyph3957" /><glyph
         unicode="ŗ"
         horiz-adv-x="724"
         d="M25 -392l115 293h185l-163 -293h-137zM155 0v1062l156 26l16 -108q43 45 110.5 83t136.5 38q50 0 91.5 -6.5t64.5 -13.5l-32 -159q-60 25 -141 24q-65 0 -125 -36t-103 -74v-836h-174z"
         id="glyph3959" /><glyph
         unicode="Ř"
         horiz-adv-x="1240"
         d="M183 0v1503h481q252 0 372 -113t120 -298q0 -99 -28.5 -172t-79 -124.5t-119.5 -82t-147 -44.5l409 -669h-204l-406 658h-218v-658h-180zM268 1924l102 67l236 -252l239 252l99 -67l-284 -325h-109zM363 813h290q314 0 314 279q0 129 -77 192.5t-221 63.5h-306v-535z"
         id="glyph3961" /><glyph
         unicode="ř"
         horiz-adv-x="724"
         d="M155 0v1062l156 26l16 -108q43 45 110.5 83t136.5 38q50 0 91.5 -6.5t64.5 -13.5l-32 -159q-60 25 -141 24q-65 0 -125 -36t-103 -74v-836h-174zM160 1550l102 67l236 -252l239 252l99 -67l-284 -325h-109z"
         id="glyph3963" /><glyph
         unicode="Ś"
         horiz-adv-x="1161"
         d="M67 217l142 105q65 -94 171 -141.5t217 -47.5q59 0 111.5 14.5t92 45t63.5 80t24 116.5q0 63 -29.5 112t-79 87t-112.5 69t-131 59q-77 34 -152 69t-134 85t-96 114.5t-37 159.5q0 97 39.5 170.5t106 122t151 72t177.5 23.5q142 0 272 -56.5t212 -177.5l-138 -109 q-58 81 -149.5 132t-199.5 51q-135 0 -207 -58.5t-72 -159.5q0 -56 26 -95.5t72 -71.5t111 -62.5t146 -66.5q77 -36 151.5 -74t132.5 -88.5t94.5 -120.5t36.5 -167q0 -114 -39.5 -198t-107 -138t-156 -79t-191.5 -25q-77 0 -151.5 17t-143.5 48.5t-126.5 77.5t-96.5 106z M409 1683l376 313l116 -117l-408 -280z"
         id="glyph3965" /><glyph
         unicode="ś"
         horiz-adv-x="927"
         d="M79 183l135 83q39 -72 98.5 -112t160.5 -40q221 0 221 159q0 47 -15 79.5t-47 59.5t-84 49.5t-127 50.5q-81 27 -137 57.5t-92.5 66t-53 81.5t-16.5 106q0 131 96 204.5t253 73.5q131 0 219 -43.5t148 -124.5l-122 -97q-45 54 -105.5 89.5t-137.5 35.5q-95 0 -141 -36.5 t-46 -90.5q0 -34 12.5 -60t44 -47.5t82 -43t129.5 -47.5q149 -52 225.5 -131t76.5 -210q0 -77 -29 -136.5t-80 -100t-120.5 -62t-153.5 -21.5q-159 0 -249.5 58.5t-144.5 149.5zM286 1309l376 313l116 -117l-408 -280z"
         id="glyph3967" /><glyph
         unicode="Ŝ"
         horiz-adv-x="1161"
         d="M67 217l142 105q65 -94 171 -141.5t217 -47.5q59 0 111.5 14.5t92 45t63.5 80t24 116.5q0 63 -29.5 112t-79 87t-112.5 69t-131 59q-77 34 -152 69t-134 85t-96 114.5t-37 159.5q0 97 39.5 170.5t106 122t151 72t177.5 23.5q142 0 272 -56.5t212 -177.5l-138 -109 q-58 81 -149.5 132t-199.5 51q-135 0 -207 -58.5t-72 -159.5q0 -56 26 -95.5t72 -71.5t111 -62.5t146 -66.5q77 -36 151.5 -74t132.5 -88.5t94.5 -120.5t36.5 -167q0 -114 -39.5 -198t-107 -138t-156 -79t-191.5 -25q-77 0 -151.5 17t-143.5 48.5t-126.5 77.5t-96.5 106z M266 1668l283 323h109l284 -323l-99 -69l-239 252l-236 -252z"
         id="glyph3969" /><glyph
         unicode="ŝ"
         horiz-adv-x="927"
         d="M79 183l135 83q39 -72 98.5 -112t160.5 -40q221 0 221 159q0 47 -15 79.5t-47 59.5t-84 49.5t-127 50.5q-81 27 -137 57.5t-92.5 66t-53 81.5t-16.5 106q0 131 96 204.5t253 73.5q131 0 219 -43.5t148 -124.5l-122 -97q-45 54 -105.5 89.5t-137.5 35.5q-95 0 -141 -36.5 t-46 -90.5q0 -34 12.5 -60t44 -47.5t82 -43t129.5 -47.5q149 -52 225.5 -131t76.5 -210q0 -77 -29 -136.5t-80 -100t-120.5 -62t-153.5 -21.5q-159 0 -249.5 58.5t-144.5 149.5zM130 1294l283 323h109l284 -323l-99 -69l-239 252l-236 -252z"
         id="glyph3971" /><glyph
         unicode="Ş"
         horiz-adv-x="1161"
         d="M67 217l142 105q65 -94 171 -141.5t217 -47.5q59 0 111.5 14.5t92 45t63.5 80t24 116.5q0 63 -29.5 112t-79 87t-112.5 69t-131 59q-77 34 -152 69t-134 85t-96 114.5t-37 159.5q0 97 39.5 170.5t106 122t151 72t177.5 23.5q142 0 272 -56.5t212 -177.5l-138 -109 q-58 81 -149.5 132t-199.5 51q-135 0 -207 -58.5t-72 -159.5q0 -56 26 -95.5t72 -71.5t111 -62.5t146 -66.5q77 -36 151.5 -74t132.5 -88.5t94.5 -120.5t36.5 -167q0 -101 -30 -177t-82.5 -128.5t-123.5 -83t-153 -41.5l-43 -73q51 -17 86 -49t35 -84q0 -86 -55 -131 t-159 -45q-40 0 -83 11.5t-69 29.5l39 111q20 -11 53 -20.5t65 -9.5q65 0 65 50q0 18 -13.5 30.5t-33.5 20t-46 13.5t-51 8l74 130q-146 7 -280 70t-207 177z"
         id="glyph3973" /><glyph
         unicode="ş"
         horiz-adv-x="927"
         d="M79 183l135 83q39 -72 98.5 -112t160.5 -40q221 0 221 159q0 47 -15 79.5t-47 59.5t-84 49.5t-127 50.5q-81 27 -137 57.5t-92.5 66t-53 81.5t-16.5 106q0 131 96 204.5t253 73.5q131 0 219 -43.5t148 -124.5l-122 -97q-45 54 -105.5 89.5t-137.5 35.5q-95 0 -141 -36.5 t-46 -90.5q0 -34 12.5 -60t44 -47.5t82 -43t129.5 -47.5q149 -52 225.5 -131t76.5 -210q0 -129 -76.5 -207.5t-203.5 -102.5l-47 -80q52 -17 87 -49t35 -84q0 -86 -55.5 -131t-158.5 -45q-41 0 -83.5 11.5t-69.5 29.5l40 111q20 -11 53 -20.5t64 -9.5q65 0 66 50 q0 18 -13.5 30.5t-34 20t-46.5 13.5t-50 8l78 138q-146 4 -228 61.5t-134 143.5z"
         id="glyph3975" /><glyph
         unicode="Š"
         horiz-adv-x="1161"
         d="M67 217l142 105q65 -94 171 -141.5t217 -47.5q59 0 111.5 14.5t92 45t63.5 80t24 116.5q0 63 -29.5 112t-79 87t-112.5 69t-131 59q-77 34 -152 69t-134 85t-96 114.5t-37 159.5q0 97 39.5 170.5t106 122t151 72t177.5 23.5q142 0 272 -56.5t212 -177.5l-138 -109 q-58 81 -149.5 132t-199.5 51q-135 0 -207 -58.5t-72 -159.5q0 -56 26 -95.5t72 -71.5t111 -62.5t146 -66.5q77 -36 151.5 -74t132.5 -88.5t94.5 -120.5t36.5 -167q0 -114 -39.5 -198t-107 -138t-156 -79t-191.5 -25q-77 0 -151.5 17t-143.5 48.5t-126.5 77.5t-96.5 106z M266 1924l102 67l236 -252l239 252l99 -67l-284 -325h-109z"
         id="glyph3977" /><glyph
         unicode="š"
         horiz-adv-x="927"
         d="M79 183l135 83q39 -72 98.5 -112t160.5 -40q221 0 221 159q0 47 -15 79.5t-47 59.5t-84 49.5t-127 50.5q-81 27 -137 57.5t-92.5 66t-53 81.5t-16.5 106q0 131 96 204.5t253 73.5q131 0 219 -43.5t148 -124.5l-122 -97q-45 54 -105.5 89.5t-137.5 35.5q-95 0 -141 -36.5 t-46 -90.5q0 -34 12.5 -60t44 -47.5t82 -43t129.5 -47.5q149 -52 225.5 -131t76.5 -210q0 -77 -29 -136.5t-80 -100t-120.5 -62t-153.5 -21.5q-159 0 -249.5 58.5t-144.5 149.5zM160 1550l102 67l236 -252l239 252l99 -67l-284 -325h-109z"
         id="glyph3979" /><glyph
         unicode="Ţ"
         horiz-adv-x="1150"
         d="M20 1348v155h1111v-155h-467v-1348h-22l-59 -95q52 -17 87 -49t35 -84q0 -86 -55.5 -131t-158.5 -45q-41 0 -83.5 11.5t-69.5 29.5l40 111q20 -11 53 -20.5t65 -9.5q65 0 65 50q0 18 -13.5 30.5t-33.5 20t-46.5 13.5t-50.5 8l92 160h-23v1348h-466z"
         id="glyph3981" /><glyph
         unicode="ţ"
         horiz-adv-x="738"
         d="M43 933v142h185v277l174 31v-308h292l-25 -142h-271v-688q0 -79 31 -105t78 -26q43 0 81 18.5t70 43.5l67 -118q-45 -32 -84 -52.5t-105 -27.5l-45 -73q51 -17 86.5 -49t35.5 -84q0 -86 -55.5 -131t-159.5 -45q-40 0 -82.5 11.5t-70.5 29.5l41 111q20 -11 53 -20.5 t65 -9.5q65 0 65 50q0 18 -14 30.5t-33.5 20t-46 13.5t-51.5 8l82 142q-178 34 -178 246v705h-185z"
         id="glyph3983" /><glyph
         unicode="Ť"
         horiz-adv-x="1150"
         d="M20 1348v155h1111v-155h-467v-1348h-178v1348h-466zM237 1924l102 67l236 -252l239 252l99 -67l-284 -325h-109z"
         id="glyph3985" /><glyph
         unicode="ť"
         horiz-adv-x="738"
         d="M43 933v142h185v277l174 31v-308h292l-25 -142h-271v-688q0 -79 31 -105t78 -26q43 0 81 18.5t70 43.5l67 -118q-52 -38 -102.5 -60.5t-142.5 -22.5q-122 0 -187 62t-65 191v705h-185zM531 1152v382h170l-63 -382h-107z"
         id="glyph3987" /><glyph
         unicode="Ŧ"
         horiz-adv-x="1150"
         d="M20 1348v155h1111v-155h-467v-544h368v-140h-368v-664h-178v664h-357v140h357v544h-466z"
         id="glyph3989" /><glyph
         unicode="ŧ"
         horiz-adv-x="738"
         d="M43 522v140h185v271h-185v142h185v277l174 31v-308h292l-25 -142h-271v-271h285v-140h-285v-277q0 -79 31 -105t78 -26q43 0 81 18.5t70 43.5l67 -118q-52 -38 -102.5 -60.5t-142.5 -22.5q-122 0 -187 62t-65 191v294h-185z"
         id="glyph3991" /><glyph
         unicode="Ũ"
         horiz-adv-x="1457"
         d="M174 503v1000h180v-967q0 -192 99 -298.5t275 -106.5q178 0 277 103.5t99 301.5v967h180v-1000q0 -133 -46.5 -232t-124 -166t-178.5 -101t-212 -34q-117 0 -217 34t-175 101t-116 166t-41 232zM353 1707q32 101 94 162t138 61q45 0 87 -20t80.5 -44t73 -44t66.5 -20 q34 0 67.5 29.5t65.5 103.5l110 -54q-36 -103 -96.5 -162t-133.5 -59q-45 0 -88 20.5t-81 44t-75.5 44t-71.5 20.5q-36 0 -65 -30.5t-60 -102.5z"
         id="glyph3993" /><glyph
         unicode="ũ"
         horiz-adv-x="1211"
         d="M148 394v668l174 28v-705q0 -142 65.5 -206.5t193.5 -64.5q83 0 165.5 35.5t134.5 84.5v841h176v-1075h-161l-10 84q-65 -50 -142 -79.5t-192 -29.5q-212 0 -308 104t-96 315zM237 1333q32 101 94 162t138 61q45 0 87 -20t80.5 -44t73 -44t66.5 -20q34 0 67.5 29.5 t65.5 103.5l110 -54q-36 -103 -96.5 -162t-133.5 -59q-45 0 -88 20.5t-81 44t-75.5 44t-71.5 20.5q-36 0 -65 -30.5t-60 -102.5z"
         id="glyph3995" /><glyph
         unicode="Ū"
         horiz-adv-x="1457"
         d="M174 503v1000h180v-967q0 -192 99 -298.5t275 -106.5q178 0 277 103.5t99 301.5v967h180v-1000q0 -133 -46.5 -232t-124 -166t-178.5 -101t-212 -34q-117 0 -217 34t-175 101t-116 166t-41 232zM393 1741v140h662v-140h-662z"
         id="glyph3997" /><glyph
         unicode="ū"
         horiz-adv-x="1211"
         d="M148 394v668l174 28v-705q0 -142 65.5 -206.5t193.5 -64.5q83 0 165.5 35.5t134.5 84.5v841h176v-1075h-161l-10 84q-65 -50 -142 -79.5t-192 -29.5q-212 0 -308 104t-96 315zM277 1329v139h662v-139h-662z"
         id="glyph3999" /><glyph
         unicode="Ŭ"
         horiz-adv-x="1457"
         d="M174 503v1000h180v-967q0 -192 99 -298.5t275 -106.5q178 0 277 103.5t99 301.5v967h180v-1000q0 -133 -46.5 -232t-124 -166t-178.5 -101t-212 -34q-117 0 -217 34t-175 101t-116 166t-41 232zM432 1911h142q7 -50 25 -82t41.5 -51t53 -25.5t58.5 -6.5q59 0 110.5 33 t69.5 132h135q-7 -82 -37 -137t-76 -89t-101 -48.5t-110 -14.5q-54 0 -108 14.5t-98 48.5t-73 89t-32 137z"
         id="glyph4001" /><glyph
         unicode="ŭ"
         horiz-adv-x="1211"
         d="M148 394v668l174 28v-705q0 -142 65.5 -206.5t193.5 -64.5q83 0 165.5 35.5t134.5 84.5v841h176v-1075h-161l-10 84q-65 -50 -142 -79.5t-192 -29.5q-212 0 -308 104t-96 315zM307 1537h142q7 -50 25 -82t41.5 -50.5t53 -25.5t58.5 -7q59 0 110.5 33t69.5 132h135 q-7 -82 -37 -137t-76 -89t-101 -48.5t-110 -14.5q-54 0 -108 14.5t-98 48.5t-73 89t-32 137z"
         id="glyph4003" /><glyph
         unicode="Ů"
         horiz-adv-x="1457"
         d="M174 503v1000h180v-967q0 -192 99 -298.5t275 -106.5q178 0 277 103.5t99 301.5v967h180v-1000q0 -133 -46.5 -232t-124 -166t-178.5 -101t-212 -34q-117 0 -217 34t-175 101t-116 166t-41 232zM533 1800q0 42 14 83t39.5 72.5t65.5 50.5t91 19q52 0 91 -19t66.5 -50.5 t41 -72.5t13.5 -83q0 -41 -13.5 -81t-41 -72t-66.5 -51t-91 -19q-51 0 -91 19t-65.5 51t-39.5 71t-14 82zM628 1800q0 -50 29 -91t86 -41q56 0 85.5 41t29.5 91q0 51 -29.5 93t-85.5 42t-85.5 -42t-29.5 -93z"
         id="glyph4005" /><glyph
         unicode="ů"
         horiz-adv-x="1211"
         d="M148 394v668l174 28v-705q0 -142 65.5 -206.5t193.5 -64.5q83 0 165.5 35.5t134.5 84.5v841h176v-1075h-161l-10 84q-65 -50 -142 -79.5t-192 -29.5q-212 0 -308 104t-96 315zM396 1426q0 42 14 83t39.5 72.5t65.5 50.5t91 19q52 0 91 -19t66.5 -50.5t41 -72.5t13.5 -83 q0 -41 -13.5 -81t-41 -72t-66.5 -51t-91 -19q-51 0 -91 19t-65.5 51t-39.5 71t-14 82zM491 1426q0 -50 29 -91t86 -41q56 0 85.5 41t29.5 91q0 51 -29.5 93t-85.5 42t-85.5 -42t-29.5 -93z"
         id="glyph4007" /><glyph
         unicode="Ű"
         horiz-adv-x="1457"
         d="M174 503v1000h180v-967q0 -192 99 -298.5t275 -106.5q178 0 277 103.5t99 301.5v967h180v-1000q0 -133 -46.5 -232t-124 -166t-178.5 -101t-212 -34q-117 0 -217 34t-175 101t-116 166t-41 232zM378 1683l376 313l115 -117l-410 -280zM795 1683l374 313l117 -117 l-410 -280z"
         id="glyph4009" /><glyph
         unicode="ű"
         horiz-adv-x="1211"
         d="M148 394v668l174 28v-705q0 -142 65.5 -206.5t193.5 -64.5q83 0 165.5 35.5t134.5 84.5v841h176v-1075h-161l-10 84q-65 -50 -142 -79.5t-192 -29.5q-212 0 -308 104t-96 315zM245 1309l376 313l115 -117l-410 -280zM662 1309l374 313l117 -117l-410 -280z"
         id="glyph4011" /><glyph
         unicode="Ų"
         horiz-adv-x="1457"
         d="M174 503v1000h180v-967q0 -192 99 -298.5t275 -106.5q178 0 277 103.5t99 301.5v967h180v-1000q0 -183 -83 -301t-212 -177q-65 -43 -115.5 -103t-50.5 -129q0 -32 15.5 -53.5t51.5 -21.5q32 0 53.5 9t38.5 21l41 -111q-58 -41 -151 -41q-86 0 -140 44t-54 132 q0 61 23.5 112t59.5 88q-11 -2 -19.5 -2h-18.5q-117 0 -217 34t-175 101t-116 166t-41 232z"
         id="glyph4013" /><glyph
         unicode="ų"
         horiz-adv-x="1211"
         d="M148 394v668l174 28v-705q0 -142 65.5 -206.5t193.5 -64.5q83 0 165.5 35.5t134.5 84.5v841h176v-1075h-43q-54 -41 -92.5 -93.5t-38.5 -113.5q0 -32 15.5 -53.5t51.5 -21.5q32 0 53.5 9t39.5 21l41 -111q-59 -41 -151 -41q-86 0 -140 44t-54 132t48.5 156t104.5 106 l-6 50q-65 -50 -142 -79.5t-192 -29.5q-212 0 -308 104t-96 315z"
         id="glyph4015" /><glyph
         unicode="Ŵ"
         horiz-adv-x="1691"
         d="M0 1503h183l277 -1062l338 1062h94l342 -1062l273 1062h185l-379 -1503h-107l-361 1120l-359 -1120h-108zM511 1668l283 323h109l284 -323l-99 -69l-239 252l-236 -252z"
         id="glyph4017" /><glyph
         unicode="ŵ"
         horiz-adv-x="1488"
         d="M0 1075h187l243 -809l264 809h99l266 -809l243 809h187l-356 -1075h-135l-254 776l-253 -776h-135zM405 1294l283 323h109l284 -323l-99 -69l-239 252l-236 -252z"
         id="glyph4019" /><glyph
         unicode="Ŷ"
         horiz-adv-x="1223"
         d="M0 1503h205l401 -609l421 609h196l-531 -780v-723h-180v720zM284 1668l283 323h109l284 -323l-99 -69l-239 252l-236 -252z"
         id="glyph4021" /><glyph
         unicode="ŷ"
         horiz-adv-x="1019"
         d="M0 1075h198l318 -827l318 827h187l-550 -1359q-41 -99 -114 -135t-152 -36q-52 0 -109.5 14.5t-88.5 28.5l49 128q25 -9 62 -17t76 -8q51 0 80.5 24.5t61.5 97.5l88 215zM171 1294l283 323h109l284 -323l-99 -69l-239 252l-236 -252z"
         id="glyph4023" /><glyph
         unicode="Ÿ"
         horiz-adv-x="1223"
         d="M0 1503h205l401 -609l421 609h196l-531 -780v-723h-180v720zM313 1829q0 52 32.5 88.5t80.5 36.5q45 0 78 -36.5t33 -88.5q0 -51 -33 -88.5t-78 -37.5q-48 0 -80.5 37.5t-32.5 88.5zM703 1829q0 52 33 88.5t78 36.5q47 0 79.5 -36.5t32.5 -88.5q0 -51 -32.5 -88.5 t-79.5 -37.5q-45 0 -78 37.5t-33 88.5z"
         id="glyph4025" /><glyph
         unicode="Ź"
         horiz-adv-x="1204"
         d="M86 0v167l847 1181h-809v155h973v-194l-824 -1154h858v-155h-1045zM360 1683l376 313l116 -117l-408 -280z"
         id="glyph4027" /><glyph
         unicode="ź"
         horiz-adv-x="1017"
         d="M90 0v169l640 764h-616v142h794v-179l-642 -754h669l-25 -142h-820zM329 1309l376 313l116 -117l-408 -280z"
         id="glyph4029" /><glyph
         unicode="Ż"
         horiz-adv-x="1204"
         d="M86 0v167l847 1181h-809v155h973v-194l-824 -1154h858v-155h-1045zM482 1829q0 56 35.5 96t86.5 40q52 0 86.5 -40t34.5 -96q0 -58 -34.5 -97.5t-86.5 -39.5q-51 0 -86.5 39.5t-35.5 97.5z"
         id="glyph4031" /><glyph
         unicode="ż"
         horiz-adv-x="1017"
         d="M90 0v169l640 764h-616v142h794v-179l-642 -754h669l-25 -142h-820zM396 1455q0 56 35.5 96t86.5 40q52 0 86.5 -40t34.5 -96q0 -58 -34.5 -97.5t-86.5 -39.5q-51 0 -86.5 39.5t-35.5 97.5z"
         id="glyph4033" /><glyph
         unicode="Ž"
         horiz-adv-x="1204"
         d="M86 0v167l847 1181h-809v155h973v-194l-824 -1154h858v-155h-1045zM274 1924l102 67l236 -252l239 252l99 -67l-284 -325h-109z"
         id="glyph4035" /><glyph
         unicode="ž"
         horiz-adv-x="1017"
         d="M90 0v169l640 764h-616v142h794v-179l-642 -754h669l-25 -142h-820zM188 1550l102 67l236 -252l239 252l99 -67l-284 -325h-109z"
         id="glyph4037" /><glyph
         unicode="ſ"
         horiz-adv-x="660"
         d="M202 0v1154q0 103 24 175t68 117.5t102.5 65.5t130.5 20q86 0 146 -17t105 -42l-53 -132q-39 17 -84.5 32t-104.5 15q-39 0 -68 -9t-49.5 -35t-30.5 -72.5t-10 -119.5v-1152h-176z"
         id="glyph4039" /><glyph
         unicode="ƒ"
         d="M-95 -155q123 4 200.5 41t125.5 107t77.5 170.5t56.5 232.5l95 464h-241v156h275q30 158 84 256t128 151.5t160.5 73t178.5 19.5v-155q-75 0 -133 -14t-103.5 -50.5t-80 -104.5t-61.5 -176h378v-156h-407l-107 -493q-15 -72 -34.5 -147.5t-46 -148.5t-64 -137.5 t-91.5 -111.5q-67 -58 -160.5 -92t-229.5 -39v154z"
         id="glyph4041" /><glyph
         unicode="Ș"
         horiz-adv-x="1161"
         d="M67 217l142 105q65 -94 171 -141.5t217 -47.5q59 0 111.5 14.5t92 45t63.5 80t24 116.5q0 63 -29.5 112t-79 87t-112.5 69t-131 59q-77 34 -152 69t-134 85t-96 114.5t-37 159.5q0 97 39.5 170.5t106 122t151 72t177.5 23.5q142 0 272 -56.5t212 -177.5l-138 -109 q-58 81 -149.5 132t-199.5 51q-135 0 -207 -58.5t-72 -159.5q0 -56 26 -95.5t72 -71.5t111 -62.5t146 -66.5q77 -36 151.5 -74t132.5 -88.5t94.5 -120.5t36.5 -167q0 -114 -39.5 -198t-107 -138t-156 -79t-191.5 -25q-77 0 -151.5 17t-143.5 48.5t-126.5 77.5t-96.5 106z M396 -392l115 293h185l-163 -293h-137z"
         id="glyph4043" /><glyph
         unicode="ș"
         horiz-adv-x="927"
         d="M79 183l135 83q39 -72 98.5 -112t160.5 -40q221 0 221 159q0 47 -15 79.5t-47 59.5t-84 49.5t-127 50.5q-81 27 -137 57.5t-92.5 66t-53 81.5t-16.5 106q0 131 96 204.5t253 73.5q131 0 219 -43.5t148 -124.5l-122 -97q-45 54 -105.5 89.5t-137.5 35.5q-95 0 -141 -36.5 t-46 -90.5q0 -34 12.5 -60t44 -47.5t82 -43t129.5 -47.5q149 -52 225.5 -131t76.5 -210q0 -77 -29 -136.5t-80 -100t-120.5 -62t-153.5 -21.5q-159 0 -249.5 58.5t-144.5 149.5zM276 -392l115 293h185l-163 -293h-137z"
         id="glyph4045" /><glyph
         unicode="Ț"
         horiz-adv-x="1150"
         d="M20 1348v155h1111v-155h-467v-1348h-178v1348h-466zM360 -392l115 293h185l-163 -293h-137z"
         id="glyph4047" /><glyph
         unicode="ț"
         horiz-adv-x="738"
         d="M43 933v142h185v277l174 31v-308h292l-25 -142h-271v-688q0 -79 31 -105t78 -26q43 0 81 18.5t70 43.5l67 -118q-52 -38 -102.5 -60.5t-142.5 -22.5q-122 0 -187 62t-65 191v705h-185zM263 -392l115 293h185l-163 -293h-137z"
         id="glyph4049" /><glyph
         unicode="ˆ"
         horiz-adv-x="995"
         d="M160 1294l283 323h109l284 -323l-99 -69l-239 252l-236 -252z"
         id="glyph4051" /><glyph
         unicode="˚"
         horiz-adv-x="995"
         d="M288 1426q0 42 14 83t39.5 72.5t65.5 50.5t91 19q52 0 91 -19t66.5 -50.5t41 -72.5t13.5 -83q0 -41 -13.5 -81t-41 -72t-66.5 -51t-91 -19q-51 0 -91 19t-65.5 51t-39.5 71t-14 82zM383 1426q0 -50 29 -91t86 -41q56 0 85.5 41t29.5 91q0 51 -29.5 93t-85.5 42t-85.5 -42 t-29.5 -93z"
         id="glyph4053" /><glyph
         unicode="˜"
         horiz-adv-x="995"
         d="M108 1333q32 101 94 162t138 61q45 0 87 -20t80.5 -44t73 -44t66.5 -20q34 0 67.5 29.5t65.5 103.5l110 -54q-36 -103 -96.5 -162t-133.5 -59q-45 0 -88 20.5t-81 44t-75.5 44t-71.5 20.5q-36 0 -65 -30.5t-60 -102.5z"
         id="glyph4055" /><glyph
         unicode="Ẁ"
         horiz-adv-x="1691"
         d="M0 1503h183l277 -1062l338 1062h94l342 -1062l273 1062h185l-379 -1503h-107l-361 1120l-359 -1120h-108zM598 1879l115 117l377 -313l-82 -84z"
         id="glyph4057" /><glyph
         unicode="ẁ"
         horiz-adv-x="1488"
         d="M0 1075h187l243 -809l264 809h99l266 -809l243 809h187l-356 -1075h-135l-254 776l-253 -776h-135zM497 1505l115 117l377 -313l-82 -84z"
         id="glyph4059" /><glyph
         unicode="Ẃ"
         horiz-adv-x="1691"
         d="M0 1503h183l277 -1062l338 1062h94l342 -1062l273 1062h185l-379 -1503h-107l-361 1120l-359 -1120h-108zM622 1683l376 313l116 -117l-408 -280z"
         id="glyph4061" /><glyph
         unicode="ẃ"
         horiz-adv-x="1488"
         d="M0 1075h187l243 -809l264 809h99l266 -809l243 809h187l-356 -1075h-135l-254 776l-253 -776h-135zM497 1309l376 313l116 -117l-408 -280z"
         id="glyph4063" /><glyph
         unicode="Ẅ"
         horiz-adv-x="1691"
         d="M0 1503h183l277 -1062l338 1062h94l342 -1062l273 1062h185l-379 -1503h-107l-361 1120l-359 -1120h-108zM537 1829q0 52 32.5 88.5t80.5 36.5q45 0 78 -36.5t33 -88.5q0 -51 -33 -88.5t-78 -37.5q-48 0 -80.5 37.5t-32.5 88.5zM927 1829q0 52 33 88.5t78 36.5 q47 0 79.5 -36.5t32.5 -88.5q0 -51 -32.5 -88.5t-79.5 -37.5q-45 0 -78 37.5t-33 88.5z"
         id="glyph4065" /><glyph
         unicode="ẅ"
         horiz-adv-x="1488"
         d="M0 1075h187l243 -809l264 809h99l266 -809l243 809h187l-356 -1075h-135l-254 776l-253 -776h-135zM436 1455q0 52 32.5 88.5t80.5 36.5q45 0 78 -36.5t33 -88.5q0 -51 -33 -88.5t-78 -37.5q-48 0 -80.5 37.5t-32.5 88.5zM826 1455q0 52 33 88.5t78 36.5q47 0 79.5 -36.5 t32.5 -88.5q0 -51 -32.5 -88.5t-79.5 -37.5q-45 0 -78 37.5t-33 88.5z"
         id="glyph4067" /><glyph
         unicode="Ỳ"
         horiz-adv-x="1223"
         d="M0 1503h205l401 -609l421 609h196l-531 -780v-723h-180v720zM358 1879l115 117l377 -313l-82 -84z"
         id="glyph4069" /><glyph
         unicode="ỳ"
         horiz-adv-x="1019"
         d="M0 1075h198l318 -827l318 827h187l-550 -1359q-41 -99 -114 -135t-152 -36q-52 0 -109.5 14.5t-88.5 28.5l49 128q25 -9 62 -17t76 -8q51 0 80.5 24.5t61.5 97.5l88 215zM227 1505l115 117l377 -313l-82 -84z"
         id="glyph4071" /><glyph
         unicode=" "
         horiz-adv-x="1012"
         id="glyph4073" /><glyph
         unicode=" "
         horiz-adv-x="2025"
         id="glyph4075" /><glyph
         unicode=" "
         horiz-adv-x="1012"
         id="glyph4077" /><glyph
         unicode=" "
         horiz-adv-x="2025"
         id="glyph4079" /><glyph
         unicode=" "
         horiz-adv-x="675"
         id="glyph4081" /><glyph
         unicode=" "
         horiz-adv-x="506"
         id="glyph4083" /><glyph
         unicode=" "
         horiz-adv-x="337"
         id="glyph4085" /><glyph
         unicode=" "
         horiz-adv-x="337"
         id="glyph4087" /><glyph
         unicode=" "
         horiz-adv-x="253"
         id="glyph4089" /><glyph
         unicode=" "
         horiz-adv-x="405"
         id="glyph4091" /><glyph
         unicode=" "
         horiz-adv-x="112"
         id="glyph4093" /><glyph
         unicode="‐"
         horiz-adv-x="690"
         d="M101 509v158h490v-158h-490z"
         id="glyph4095" /><glyph
         unicode="‑"
         horiz-adv-x="690"
         d="M101 509v158h490v-158h-490z"
         id="glyph4097" /><glyph
         unicode="‒"
         horiz-adv-x="690"
         d="M101 509v158h490v-158h-490z"
         id="glyph4099" /><glyph
         unicode="–"
         horiz-adv-x="1126"
         d="M0 509v162h1126v-162h-1126z"
         id="glyph4101" /><glyph
         unicode="—"
         horiz-adv-x="1518"
         d="M0 509v162h1518v-162h-1518z"
         id="glyph4103" /><glyph
         unicode="―"
         horiz-adv-x="1518"
         d="M0 509v162h1518v-162h-1518z"
         id="glyph4105" /><glyph
         unicode="‘"
         horiz-adv-x="432"
         d="M101 1189q0 52 18.5 99t46.5 90t64 78.5t71 59.5l45 -58q-29 -22 -68 -67.5t-50 -94.5q45 0 79.5 -34t34.5 -93q0 -49 -30 -90t-91 -41q-34 0 -57.5 14t-37.5 36.5t-19.5 49.5t-5.5 51z"
         id="glyph4107" /><glyph
         unicode="’"
         horiz-adv-x="432"
         d="M86 1097q30 22 69 67.5t50 95.5q-45 0 -80 33.5t-35 92.5q0 50 30.5 90t91.5 40q34 0 57.5 -14.5t37 -36t19 -48.5t5.5 -52q0 -52 -18 -99t-46 -90t-64 -77.5t-72 -60.5z"
         id="glyph4109" /><glyph
         unicode="‚"
         horiz-adv-x="432"
         d="M86 -99q30 22 69 67t50 95q-45 0 -80 34t-35 92q0 50 30.5 90.5t91.5 40.5q34 0 57.5 -15t37 -36t19 -48t5.5 -52q0 -51 -18 -99t-46 -90.5t-64 -77.5t-72 -59z"
         id="glyph4111" /><glyph
         unicode="“"
         horiz-adv-x="819"
         d="M101 1189q0 52 18.5 99t46.5 90t64 78.5t71 59.5l45 -58q-29 -22 -68 -67.5t-50 -94.5q45 0 79.5 -34t34.5 -93q0 -49 -30 -90t-91 -41q-34 0 -57.5 14t-37.5 36.5t-19.5 49.5t-5.5 51zM488 1189q0 52 18.5 99t46.5 90t64 78.5t71 59.5l45 -58q-29 -22 -68 -67.5 t-50 -94.5q45 0 79.5 -34t34.5 -93q0 -49 -30 -90t-91 -41q-34 0 -57.5 14t-37.5 36.5t-19.5 49.5t-5.5 51z"
         id="glyph4113" /><glyph
         unicode="”"
         horiz-adv-x="819"
         d="M86 1097q30 22 69 67.5t50 95.5q-45 0 -80 33.5t-35 92.5q0 50 30.5 90t91.5 40q34 0 57.5 -14.5t37 -36t19 -48.5t5.5 -52q0 -52 -18 -99t-46 -90t-64 -77.5t-72 -60.5zM473 1097q30 22 69 67.5t50 95.5q-45 0 -80 33.5t-35 92.5q0 50 30.5 90t91.5 40q34 0 57.5 -14.5 t37 -36t19 -48.5t5.5 -52q0 -52 -18 -99t-46 -90t-64 -77.5t-72 -60.5z"
         id="glyph4115" /><glyph
         unicode="„"
         horiz-adv-x="819"
         d="M86 -99q30 22 69 67t50 95q-45 0 -80 34t-35 92q0 50 30.5 90.5t91.5 40.5q34 0 57.5 -15t37 -36t19 -48t5.5 -52q0 -51 -18 -99t-46 -90.5t-64 -77.5t-72 -59zM473 -99q30 22 69 67t50 95q-45 0 -80 34t-35 92q0 50 30.5 90.5t91.5 40.5q34 0 57.5 -15t37 -36t19 -48 t5.5 -52q0 -51 -18 -99t-46 -90.5t-64 -77.5t-72 -59z"
         id="glyph4117" /><glyph
         unicode="†"
         horiz-adv-x="1004"
         d="M90 834v162h334v507h161v-507h329v-162h-329v-1163h-161v1163h-334z"
         id="glyph4119" /><glyph
         unicode="‡"
         horiz-adv-x="1004"
         d="M90 178v160h334v496h-334v162h334v507h161v-507h329v-162h-329v-496h329v-160h-329v-507h-161v507h-334z"
         id="glyph4121" /><glyph
         unicode="•"
         horiz-adv-x="1096"
         d="M112 872q0 90 34 170t92.5 138.5t139 93.5t172.5 35q90 0 169 -35t138.5 -93.5t93 -138.5t33.5 -170t-33.5 -169t-93 -138.5t-138.5 -93.5t-169 -34t-170.5 34t-138.5 92.5t-93.5 137.5t-35.5 171z"
         id="glyph4123" /><glyph
         unicode="…"
         horiz-adv-x="1281"
         d="M101 110q0 56 35.5 95.5t86.5 39.5q52 0 86.5 -39t34.5 -96q0 -56 -34.5 -95.5t-86.5 -39.5q-51 0 -86.5 39.5t-35.5 95.5zM520 110q0 56 35.5 95.5t86.5 39.5q52 0 86.5 -39t34.5 -96q0 -56 -34.5 -95.5t-86.5 -39.5q-51 0 -86.5 39.5t-35.5 95.5zM937 110 q0 56 35.5 95.5t86.5 39.5q52 0 86.5 -39t34.5 -96q0 -56 -34.5 -95.5t-86.5 -39.5q-51 0 -86.5 39.5t-35.5 95.5z"
         id="glyph4125" /><glyph
         unicode=" "
         horiz-adv-x="405"
         id="glyph4127" /><glyph
         unicode="‰"
         horiz-adv-x="2290"
         d="M73 1129q0 79 18.5 149t58 122.5t97.5 83t136 30.5q77 0 135 -32.5t97.5 -86.5t59 -124t19.5 -142q0 -84 -20.5 -154t-59 -121.5t-96.5 -80.5t-135 -29q-155 0 -232.5 107.5t-77.5 277.5zM212 1131q0 -54 10 -103.5t30.5 -88t53 -62t77.5 -23.5t78 23.5t52.5 62t30 88 t10.5 103.5q0 51 -10.5 101t-30 88t-52.5 61t-78 23t-77.5 -23t-53 -61t-30.5 -88t-10 -101zM320 45l811 1471l126 -61l-810 -1470zM884 377q0 79 18.5 149t58 122.5t97.5 83t136 30.5q77 0 135 -32.5t97.5 -86.5t59 -124t19.5 -142q0 -84 -20.5 -154t-59 -121.5 t-96.5 -80.5t-135 -29q-155 0 -232.5 107.5t-77.5 277.5zM1023 379q0 -54 10 -103.5t30.5 -88t53 -62t77.5 -23.5t78 23.5t52.5 62t30 88t10.5 103.5q0 51 -10.5 101t-30 88t-52.5 61t-78 23t-77.5 -23t-53 -61t-30.5 -88t-10 -101zM1598 377q0 79 18.5 149t58 122.5 t97.5 83t136 30.5q77 0 135 -32.5t97.5 -86.5t59 -124t19.5 -142q0 -84 -20.5 -154t-59 -121.5t-96.5 -80.5t-135 -29q-155 0 -232.5 107.5t-77.5 277.5zM1737 379q0 -54 10 -103.5t30.5 -88t53 -62t77.5 -23.5t78 23.5t52.5 62t30 88t10.5 103.5q0 51 -10.5 101t-30 88 t-52.5 61t-78 23t-77.5 -23t-53 -61t-30.5 -88t-10 -101z"
         id="glyph4129" /><glyph
         unicode="‹"
         horiz-adv-x="673"
         d="M34 563l437 460l117 -88l-326 -361l357 -353l-107 -99z"
         id="glyph4131" /><glyph
         unicode="›"
         horiz-adv-x="673"
         d="M54 221l358 353l-326 361l116 88l438 -460l-478 -441z"
         id="glyph4133" /><glyph
         unicode="⁄"
         horiz-adv-x="170"
         d="M-383 45l811 1471l126 -61l-810 -1470z"
         id="glyph4135" /><glyph
         unicode=" "
         horiz-adv-x="506"
         id="glyph4137" /><glyph
         unicode="€"
         d="M28 550v123h177v152h-177v123h189q15 155 58 263.5t107.5 176t148.5 98t183 30.5q90 0 156.5 -21.5t116 -59.5t83.5 -88.5t61 -110.5l-164 -69q-34 77 -94 132t-170 55q-75 0 -128 -33t-87.5 -88t-53.5 -128t-28 -157h480v-123h-490v-152h490v-123h-482 q17 -194 91.5 -304.5t232.5 -110.5q108 0 165 53t105 148l137 -88q-29 -59 -65 -109.5t-84.5 -87t-113 -56.5t-152.5 -20q-240 0 -360.5 153.5t-145.5 421.5h-186z"
         id="glyph4139" /><glyph
         unicode="₮"
         d="M60 1331v154h1098v-154h-462v-411l293 123v-133l-293 -124v-150l293 123v-133l-293 -123v-503h-171v428l-295 -124v133l295 124v151l-295 -124v132l295 125v486h-465z"
         id="glyph4141" /><glyph
         unicode="₴"
         d="M101 561v124h250q45 37 95 72.5t102 74.5h-447v123h604q56 49 90 99t34 111q0 101 -56.5 148.5t-170.5 47.5q-104 0 -170.5 -43t-124.5 -122l-142 81q36 61 86 105t108 74.5t121 45t124 14.5q86 0 159 -19.5t127 -58.5t85 -101t31 -146q0 -75 -20.5 -131t-61.5 -105h160 v-123h-291q-32 -26 -67.5 -51.5t-74.5 -52.5q-15 -11 -30 -21.5t-30 -21.5h493v-124h-635q-43 -47 -65.5 -100t-22.5 -119q0 -54 21.5 -93.5t56 -64t79.5 -37t92 -12.5q183 0 310 181l150 -77q-74 -125 -197 -194.5t-280 -69.5q-86 0 -161.5 25t-132 72.5t-89 115.5 t-32.5 154q0 67 15.5 120.5t45.5 98.5h-138z"
         id="glyph4143" /><glyph
         unicode="₸"
         d="M60 1006v154h1098v-154h-462v-1006h-171v1006h-465zM60 1331v154h1098v-154h-1098z"
         id="glyph4145" /><glyph
         unicode="₹"
         d="M183 640v155h128q162 0 254.5 50.5t112.5 158.5h-495v125h495q-18 107 -91 156.5t-185 49.5h-219v150h914v-142h-342q47 -52 71.5 -102t31.5 -112h239v-125h-241q-20 -148 -136 -241.5t-322 -100.5l561 -662h-231z"
         id="glyph4147" /><glyph
         unicode="₺"
         d="M101 615v126l181 57v144l-181 -56v126l181 56v417h180v-359l522 168v-127l-522 -167v-144l522 167v-127l-522 -166v-584q95 0 179 24t150.5 77.5t111.5 140.5t62 216l161 -50q-15 -139 -72.5 -246.5t-149 -179.5t-214 -109t-266.5 -37q-75 0 -142 14v675z"
         id="glyph4149" /><glyph
         unicode="™"
         horiz-adv-x="1395"
         d="M43 1390v113h484v-113h-181v-534h-123v534h-180zM630 856v647h127l202 -451l189 451h125v-647h-127v401l-168 -406h-36l-185 409v-404h-127z"
         id="glyph4151" /><glyph
         unicode="◼"
         horiz-adv-x="1069"
         d="M0 0v1070h1070v-1070h-1070z"
         id="glyph4153" /><glyph
         unicode="ﬁ"
         horiz-adv-x="1103"
         d="M45 933v142h160v79q0 97 30.5 169t81 118t118.5 68.5t141 22.5q125 0 198 -35t122 -78l-83 -114q-39 31 -97 60.5t-137 29.5q-95 0 -149 -54.5t-54 -188.5v-77h271l-25 -142h-244v-933h-176v933h-157zM776 0v1059l172 31v-1090h-172z"
         id="glyph4155" /><glyph
         unicode="ﬂ"
         horiz-adv-x="1168"
         d="M45 933v142h157v38q0 110 36.5 190t102 131t154 74.5t195.5 23.5q101 0 190 -20t134 -39v-1473h-176v1358q-27 12 -71 18.5t-92 6.5q-60 0 -114 -12.5t-94.5 -42.5t-65.5 -84.5t-25 -136.5v-32h271l-25 -142h-244v-933h-176v933h-157z"
         id="glyph4157" /></font>
</defs>
</svg>
