<?xml version="1.0" encoding="UTF-8" standalone="no"?>
<svg
   id="svg2"
   viewBox="0 0 28222.223 8152.6114"
   style="fill-rule:evenodd"
   version="1.1"
   height="288.87204"
   width="1000"
   xml:space="preserve"
   sodipodi:docname="China_Post.svg"
   inkscape:version="1.3.2 (091e20e, 2023-11-25, custom)"
   xmlns:inkscape="http://www.inkscape.org/namespaces/inkscape"
   xmlns:sodipodi="http://sodipodi.sourceforge.net/DTD/sodipodi-0.dtd"
   xmlns="http://www.w3.org/2000/svg"
   xmlns:svg="http://www.w3.org/2000/svg"
   xmlns:rdf="http://www.w3.org/1999/02/22-rdf-syntax-ns#"
   xmlns:cc="http://creativecommons.org/ns#"
   xmlns:dc="http://purl.org/dc/elements/1.1/"><sodipodi:namedview
   id="namedview1"
   pagecolor="#ffffff"
   bordercolor="#000000"
   borderopacity="0.25"
   inkscape:showpageshadow="2"
   inkscape:pageopacity="0.0"
   inkscape:pagecheckerboard="0"
   inkscape:deskcolor="#d1d1d1"
   inkscape:zoom="0.53598693"
   inkscape:cx="361.01626"
   inkscape:cy="239.74465"
   inkscape:window-width="1366"
   inkscape:window-height="705"
   inkscape:window-x="-8"
   inkscape:window-y="-8"
   inkscape:window-maximized="1"
   inkscape:current-layer="svg2"
   showgrid="false" /><metadata
   id="metadata1100"><rdf:RDF><cc:Work
       rdf:about=""><dc:format>image/svg+xml</dc:format><dc:type
         rdf:resource="http://purl.org/dc/dcmitype/StillImage" /></cc:Work></rdf:RDF></metadata>
 <defs
   id="defs4">
  <font
   vert-adv-y="90"
   vert-origin-y="90"
   vert-origin-x="45"
   horiz-origin-y="0"
   horiz-origin-x="0"
   font-weight="400"
   font-style="normal"
   font-variant="normal"
   horiz-adv-x="500"
   id="FontID2">
	<font-face
   id="font-face7"
   font-family="宋体">
	</font-face>
   <missing-glyph
   id="missing-glyph9"><path
     id="path11"
     d="M0 0z" /></missing-glyph>
   <glyph
   id="glyph13"
   horiz-adv-x="1000"
   unicode="注"><path
     id="path15"
     d="M503.833 796.833c60.0001,-28.6668 101.667,-53.3333 125,-74.1665 23.5001,-20.8335 24.8335,-48.1669 3.99997,-82.0001 -20.8332,-33.8335 -37.8332,-30.6666 -50.8331,9.66671 -13,40.5 -41.6667,85.3333 -85.8333,134.833l7.66658 11.6666zm-152.333 -218.667l445.333 0 62.5 58.5 74.3335 -82.0001 -297 0 0 -246 125 0 54.6667 54.6667 74.3332 -78.1665 -254 0 0 -289 175.833 0 62.5 58.5 74.1665 -82.0001 -546.833 0c-33.8335,0 -65.1668,-3.83329 -93.6669,-11.6666l-35.1666 35.1666 308.5 0 0 289 -97.6669 0c-33.8332,0 -64.9998,-3.83329 -93.6666,-11.6668l-35.1666 35.1666 226.5 0 0 246 -101.5 0c-33.8332,0 -65.1665,-3.83329 -93.8333,-11.6668l-35.1666 35.1669zm0 58.5c-83.3335,-281.167 -130.167,-439.333 -140.5,-474.5 -10.5001,-35.1666 -16.3332,-75.4999 -17.6666,-121.167 -1.33342,-45.5 -1.33342,-78.8335 0,-99.6667 1.33342,-20.8332 -14.3334,-24.0001 -46.8334,-9.66671 -32.4998,14.3334 -40.3333,47.5002 -23.4998,99.6667 16.9999,51.9999 17.6666,85.1666 1.99984,99.5 -15.6665,14.3334 -42.9999,26.6666 -82.0001,37.1667l0 15.6665c46.8334,-5.33339 76.1669,-7.16655 87.8335,-5.99981 11.6666,1.33313 25.4999,13.1666 41,35.1666 15.6665,22.1666 70.3332,164.833 164.167,427.833l15.5001 -3.99997zm-304.667 -97.6669c91.1665,-41.6665 137.333,-75.4999 138.667,-101.5 1.33342,-25.9999 -5.16671,-48.1666 -19.5001,-66.3333 -14.3334,-18.3334 -28.0001,-9.83339 -41,25.3332 -13,35.1666 -41.6667,78.8332 -86,130.833l7.83354 11.6666zm93.8333 234.5c70.3332,-33.8332 111.333,-61.3332 123,-82.1667 11.6668,-20.8332 8.50025,-45.4997 -9.8331,-74.1665 -18.1667,-28.6668 -33.1668,-24.0001 -44.8333,13.6667 -11.6668,37.8332 -37.1667,81.3333 -76.1669,130.833l7.83354 11.8332z" /></glyph>
   <glyph
   id="glyph17"
   horiz-adv-x="500"
   unicode="3"><path
     id="path19"
     d="M438 195.667c0,-49.5002 -18.1667,-93.1669 -54.6666,-131 -36.5003,-37.8335 -87.3334,-56.6666 -152.333,-56.6666 -47,0 -87.3334,12.9999 -121.167,39.1664 -33.8334,26.1668 -50.8335,56.1668 -50.8335,90.1668 0,15.6668 5.16673,29.3331 15.6668,40.9998 10.3335,11.8333 20.8335,17.6668 31.3332,17.6668 15.6668,0 26.6667,-5.83354 33.167,-17.6668 6.49996,-11.8333 9.83325,-21.6665 9.83325,-29.4997 0,-13.0003 -2.66686,-24.1668 -7.83359,-33.3336 -5.16634,-9.16643 -7.8332,-17.6664 -7.8332,-25.5 0,-15.6664 9.83325,-28.8333 29.3335,-39.333 19.4999,-10.5001 41.1664,-15.6668 64.4998,-15.6668 47,0 82.1666,13.6667 105.667,41.1664 23.5,27.3335 35.1667,69.8335 35.1667,127.167 0,47 -12.3331,84.8331 -37.1667,113.666 -24.8332,28.6667 -70.9998,43.0003 -138.833,43.0003l0 26.9999c52.3333,0 90.8333,12.3335 115.667,37.1667 24.8332,24.8332 37.3333,59.3335 37.3333,103.833 0,36.5003 -9.83364,68.5003 -29.3335,95.8334 -19.6665,27.5001 -50.3333,41.1668 -92.1665,41.1668 -18.3336,0 -37.8335,-4.49991 -58.8337,-13.6667 -20.8331,-9.16682 -31.3332,-24.3334 -31.3332,-45.1665 0,-21.0001 2.66686,-34.1666 7.8332,-39.3334 5.16673,-5.16673 7.83359,-11.8333 7.83359,-19.6669 0,-12.9999 -2.66686,-23.5 -7.83359,-31.3332 -5.16634,-7.8332 -14.3332,-11.8333 -27.3331,-11.8333 -10.3335,0 -20.1667,4.0001 -29.1669,11.8333 -9.16643,7.8332 -13.6663,22.1667 -13.6663,42.9999 0,39.1668 17,71.1668 50.8331,96 33.8334,24.8336 73.0002,37.1667 117.167,37.1667 52.1667,0 93.8333,-16.3332 125.167,-48.8334 31.1666,-32.6664 46.8334,-67.1667 46.8334,-103.667 0,-38.9998 -9.83364,-72.3334 -29.3335,-99.6665 -19.6665,-27.3335 -50.3333,-47.5002 -91.9999,-60.5001 57.1664,-20.8335 96.3332,-48.3332 117.167,-82.1666 20.8331,-33.8334 31.1666,-67.6669 31.1666,-101.5z" /></glyph>
   <glyph
   id="glyph21"
   horiz-adv-x="1000"
   unicode="尺"><path
     id="path23"
     d="M820.333 683.667c0,-41.6667 0,-82.1667 0,-121.167 0,-38.9999 1.33342,-88.4999 3.83329,-148.5l-58.5 -23.3334 0 62.5 -246.167 0c36.5,-140.666 91.8332,-247.5 166,-320.333 74.3332,-72.9998 163.5,-123.667 267.667,-152.333l0 -15.6665c-46.8332,-5.16671 -78.1665,-22.1666 -93.8333,-50.8334 -119.667,70.3332 -207,153 -261.667,248.167 -54.6667,95 -88.4999,192 -101.5,291l-211 0c-2.66683,-145.833 -20.1668,-257.167 -52.6669,-334 -32.6665,-76.8333 -95.8331,-151.667 -189.5,-224.667l-7.83326 15.6668c57.3333,57.3333 100.333,114.5 128.834,171.833 28.6665,57.3333 46.9998,127 54.8331,209 7.66687,82.0001 9,237.667 3.83357,466.834l62.5 -35.1666 472.667 0 31.1666 38.9999 62.5 -50.6667 -31.1666 -27.3334zm-535.167 15.5001l0 -222.667 480.5 0 0 222.667 -480.5 0z" /></glyph>
   <glyph
   id="glyph25"
   horiz-adv-x="500"
   unicode="0"><path
     id="path27"
     d="M250 661c-36.5003,0 -67.1667,-27.9999 -91.8337,-84.1667 -24.8332,-55.9998 -37.1663,-131 -37.1663,-224.833 0,-99.1667 12.3331,-176.167 37.1663,-230.833 24.667,-54.8336 55.3334,-82.1666 91.8337,-82.1666 38.9998,0 69.6665,27.3331 91.8333,82.1666 22.1664,54.6666 33.1666,131.666 33.1666,230.833 0,93.8333 -10.5001,168.834 -31.3336,224.833 -20.8331,56.1668 -51.9997,84.1667 -93.6663,84.1667zm0 -653c-57.3334,0 -105.5,29.9999 -144.5,89.8332 -39.0002,59.9999 -58.5,144.666 -58.5,254.167 0,101.5 18.8335,183.667 56.6666,246.167 37.6669,62.5001 86.4999,93.8333 146.334,93.8333 57.1664,0 104.667,-29.9999 142.333,-89.8332 37.8335,-59.9999 56.6666,-143.334 56.6666,-250.167 0,-106.833 -18.8331,-190.833 -56.6666,-252.166 -37.6665,-61.1669 -85.1667,-91.8333 -142.333,-91.8333z" /></glyph>
   <glyph
   id="glyph29"
   horiz-adv-x="500"
   unicode="-"><path
     id="path31"
     d="M31 348l0 35.0001 434 0 0 -35.0001 -434 0z" /></glyph>
   <glyph
   id="glyph33"
   horiz-adv-x="1000"
   unicode="面"><path
     id="path35"
     d="M414 183.667l0 -172 164.167 0 0 172 -164.167 0zm-27.3331 375c20.8331,59.8333 35.1667,115.833 42.9999,167.834l-250 0c-39.0002,0 -72.8336,-3.83349 -101.5,-11.6667l-35.1667 35.1667 781.167 0 62.5001 58.6667 70.3333 -82.1666 -488.167 0 58.5 -31.167 -39.0002 -11.6667c-31.3332,-44.3331 -57.3334,-85.9997 -78.1665,-125l382.833 0 27.3335 39.0002 62.4998 -46.8334 -27.3331 -27.3335c0,-234.5 1.33324,-429.667 3.8331,-586l-58.5 -27.3331 0 78.1665 -605.5 0 0 -54.6666 -58.6667 -27.5001c2.66686,91.1665 4.0001,207.833 4.0001,349.667 0,142 -1.33324,253.333 -4.0001,334l58.6667 -31.1666 191.334 0zm-191.334 -23.5l0 -523.5 168 0 0 523.5 -168 0zm433.5 0l0 -523.5 172 0 0 523.5 -172 0zm-214.834 0l0 -148.5 164.167 0 0 148.5 -164.167 0zm0 -171.833l0 -156.333 164.167 0 0 156.333 -164.167 0z" /></glyph>
   <glyph
   id="glyph37"
   horiz-adv-x="1000"
   unicode="政"><path
     id="path39"
     d="M42.9999 671.833l359.333 0 50.8335 50.8335 74.1668 -74.1668 -203.167 0 0 -226.666 54.6666 0 39.1668 39.1664 62.5001 -62.4998 -156.333 0 0 -269.667 183.667 47 3.83349 -15.6668c-221.333,-78.1665 -359.333,-127.667 -414,-148.5l-19.5003 -23.3334 -42.9999 77.9999c12.9999,0 41.6666,5.33333 86.0001,15.6668 0,182.333 -1.33363,328.167 -4.0001,437.5l89.8332 -46.8334 -35.1667 -23.5 0 -355.333 101.667 23.3334 0 531.333 -101.667 0c-33.8334,0 -65,-3.99971 -93.6667,-11.8333l-35.1667 35.1667zm562.5 152.333l85.8335 -42.8333 -31.167 -23.5c-12.9999,-41.6666 -29.9999,-93.8333 -50.8331,-156.333l222.666 0 46.8334 47 70.3333 -70.3333 -113.167 0c-15.6664,-179.666 -52.1667,-323 -109.5,-429.667 70.333,-91.1665 147.167,-144.666 230.5,-160.167l0 -15.6668c-41.6666,-5.16634 -67.6669,-20.8331 -78.1669,-46.8334 -72.8332,46.8334 -135.333,109.334 -187.5,187.5 -111.833,-101.667 -233,-170.667 -363.167,-207.167l-4.0001 11.8333c132.833,54.6666 244.833,134.167 336,238.334 -49.4998,111.833 -80.6664,225.167 -93.8333,339.833 -33.833,-78.1665 -67.6665,-139.333 -101.5,-183.667l-11.6667 7.8332c65,135.333 115.833,303.334 152.333,503.833zm-4.0001 -246l-19.4999 -54.6666c25.9998,-138 62.5001,-246.167 109.334,-324.333 47,91.1665 75.6667,217.5 85.9997,379l-175.833 0z" /></glyph>
   <glyph
   id="glyph41"
   horiz-adv-x="500"
   unicode="8"><path
     id="path43"
     d="M97.9999 175.833c0,-41.6667 13.6667,-75.6666 40.8334,-101.667 27.3334,-26.1669 61.6666,-39.1669 103.167,-39.1669 49.1666,0 84.8333,13 107,39.1669 22.0003,25.9999 33.0001,58.6664 33.0001,97.8333 0,33.8332 -15.4998,66.4999 -46.6665,97.8333 -31.1669,31.1666 -77.8334,60.0001 -140.167,86 -31,-20.8332 -55.0001,-47.0001 -71.8333,-78.1668 -16.8335,-31.3333 -25.3335,-65.3332 -25.3335,-101.833zm343 7.99994c0,-49.5 -18.1667,-91.1667 -54.6667,-125 -36.3334,-33.8335 -84.4999,-50.8334 -144.333,-50.8334 -54.6667,0 -101.5,16.9999 -140.5,50.8334 -38.9999,33.8332 -58.5,73.0001 -58.5,117.167 0,44.3333 11.0001,82.1667 33.1668,113.5 22.1666,31.1666 54,58.5 95.6667,81.9998 -36.3334,18.1667 -64.1667,41 -83.6668,68.3334 -19.4998,27.5 -29.1665,58 -29.1665,92.0001 0,44.1666 16.8333,82.0001 50.6667,113.333 33.6665,31.1666 80.5,46.8332 140.167,46.8332 54.6664,0 98.8333,-15.6665 132.5,-46.8332 33.8335,-31.3333 50.6667,-69.1668 50.6667,-113.333 0,-31.3333 -9.66671,-60.6668 -29.1668,-88.0002 -19.3331,-27.3334 -49.8334,-51.4998 -91.3331,-72.3333 44.1666,-25.9999 76.6667,-54.6664 97.3332,-85.9997 20.8332,-31.3333 31.1666,-65.1668 31.1666,-101.667zm-63 344.167c0,36.5 -10.3334,68.5001 -31,95.8331 -20.8332,27.5 -53.1666,41.1667 -97.1665,41.1667 -49.1669,0 -84.0002,-13 -104.833,-39.1666 -20.6668,-25.9999 -31,-53.5 -31,-82.1667 0,-28.6665 14.9998,-56.6665 44.8333,-84.1666 29.8332,-27.3334 72,-51.5001 126.5,-72.3333 30.8333,15.6668 54,35.1666 69.4998,58.6667 15.5001,23.5001 23.1667,50.8334 23.1667,82.1667z" /></glyph>
   <glyph
   id="glyph45"
   horiz-adv-x="500"
   unicode="5"><path
     id="path47"
     d="M269.833 446c49.5,0 90,-18.8334 121.167,-56.6665 31.3333,-37.8334 47.0001,-88.0002 47.0001,-150.667 0,-70.3332 -16.3335,-126.333 -48.8333,-168.167 -32.5001,-41.6665 -82.6668,-62.5 -150.5,-62.5 -46.8334,0 -88.4999,13.6667 -125,41 -36.5,27.3334 -54.6667,60.5001 -54.6667,99.5 0,15.5001 4.5,29.1668 13.6667,41 9.16668,11.6666 21.4999,17.5 37.1667,17.5 15.6665,0 26.1666,-5.16671 31.3333,-15.6665 5.16671,-10.3334 7.83326,-19.5001 7.83326,-27.3334 0,-15.6668 -3.83329,-28.0001 -11.6668,-37.1667 -7.83326,-9.16668 -11.8332,-18.8334 -11.8332,-29.3335 0,-20.8332 12.4999,-36.5 37.1667,-46.8332 24.8332,-10.5001 51.4998,-15.6668 80.1666,-15.6668 41.8334,0 73.6668,16.9999 95.8334,50.8334 22.1666,33.9999 33.3332,82.3334 33.3332,145 0,52.1665 -9.8331,94.6667 -29.3332,127.166 -19.6668,32.6667 -49,49.0002 -88.1668,49.0002 -28.8332,0 -53.5,-5.16671 -74.4999,-15.6668 -20.8332,-10.3334 -40.5,-32.5001 -58.6667,-66.4999l-35.3333 3.99997 19.9998 355.167 320 0 -11.8332 -59 -282.5 0 -14.5001 -257.167c26.1666,36.5 51.5001,58.6667 76.3333,66.5002 24.8335,7.83326 50.1667,11.6666 76.3333,11.6666z" /></glyph>
   <glyph
   id="glyph49"
   horiz-adv-x="1000"
   unicode="三"><path
     id="path51"
     d="M117.167 671.833l644.5 0 58.667 58.6667 81.9996 -82 -660.167 0c-31.1666,0 -61.1665,-3.99971 -89.8332,-11.8333l-35.1667 35.1667zm58.6667 -312.5l507.833 0 58.5 58.6667 82 -82 -523.333 0c-31.3332,0 -61.1665,-4.0001 -89.8332,-11.8333l-35.1667 35.1667zm-136.833 -332l773.5 0 62.5001 62.4998 85.9997 -85.9997 -797 0c-31.1666,0 -61.1669,-3.83349 -89.8332,-11.6667l-35.1667 35.1667z" /></glyph>
   <glyph
   id="glyph53"
   horiz-adv-x="1000"
   unicode="寸"><path
     id="path55"
     d="M425.833 15.6668c85.8333,-10.5001 137.333,-15.0001 154.167,-13.6667 16.9999,1.33313 25.5002,17.5 25.5002,48.8333l0 460.833 -421.834 0c-33.9999,0 -65.1665,-3.83329 -93.8333,-11.6666l-35.1666 35.1666 550.833 0 0 160.167c0,41.6665 -1.33342,81.9998 -4.00025,121l101.667 -46.8334 -39.1666 -31.1666 0 -203.167 140.666 0 58.6667 58.6667 82.0001 -82.1667 -281.333 0 0 -507.833c-2.50016,-49.3333 -33.8335,-84.4999 -93.6669,-105.333 -2.66655,36.3331 -50.8331,68.9998 -144.5,97.6666l0 19.5001zm-191.5 421.833c75.4999,-49.5 123.167,-87.1668 142.667,-113.333 19.5001,-25.9999 28.0001,-49.5 25.3335,-70.3332 -2.66683,-20.8335 -11.0001,-38.3335 -25.3335,-52.6669 -14.3334,-14.3331 -26.6666,-5.83313 -37.1665,25.3335 -10.3334,31.3333 -23.5001,60.6665 -39.0002,87.9999 -15.6665,27.3334 -40.3333,64.3334 -74.3332,111.333l7.83326 11.6668z" /></glyph>
   <glyph
   id="glyph57"
   horiz-adv-x="500"
   unicode="2"><path
     id="path59"
     d="M364 520.333c0,46.8334 -10.4997,82.6668 -31.3332,107.5 -20.8331,24.8332 -52.0001,37.1667 -93.6667,37.1667 -31.3332,0 -57.9998,-8.50001 -80.1666,-25.5 -22.1667,-17 -33.1666,-38.5 -33.1666,-64.6668 0,-15.6664 4.49991,-28.8333 13.6667,-39.1668 9.16643,-10.4997 13.6667,-20.9997 13.6667,-31.4998 0,-12.9999 -3.33367,-22.8332 -9.83364,-29.3335 -6.49996,-6.49996 -16.1666,-9.83325 -29.3331,-9.83325 -15.6668,0 -27.9999,4.49991 -37.1667,13.6667 -9.16682,9.16682 -13.6667,24.1668 -13.6667,44.9999 0,54.8336 19.4999,96.5002 58.5,125.334 39.1668,28.6667 80.8334,42.9999 125,42.9999 62.5001,0 108.667,-15.6668 138.667,-46.8334 29.8333,-31.3332 44.8333,-70.3333 44.8333,-117.333 0,-31.1666 -7.16638,-62.4998 -21.4999,-93.6667 -14.3332,-31.3332 -37.1667,-61.3331 -68.3333,-89.9998 -75.5001,-72.8332 -133.5,-132 -173.833,-177.5 -40.5,-45.4997 -64.4998,-75.9999 -72.3334,-91.6667l230.667 0c23.5,0 42.9999,9.16682 58.6667,27.3335 15.4998,18.1667 25.9998,45.3335 31.1666,81.6668l23.5 0 -23.5 -168 -363.5 0 0 51.1667c12.9999,23.3334 34.4999,53.3333 64.4998,89.6666 29.9999,36.4999 69.6669,79.3336 119.167,128.833 44.3335,44.3335 76.9999,86.0001 98,125.167 20.8335,39.0002 31.3332,75.5001 31.3332,109.5z" /></glyph>
   <glyph
   id="glyph61"
   horiz-adv-x="500"
   unicode="C"><path
     id="path63"
     d="M269.5 8.00019c-73.0002,0 -131,27.3331 -174,81.9996 -43.0003,54.8336 -64.5002,140.834 -64.5002,258 0,99.0001 22.8332,181.167 68.3333,246.334 45.6667,65.1666 107.5,97.6664 185.667,97.6664 18.1667,0 36.3333,-3.33328 54.6669,-9.83325 18.1667,-6.49996 33.833,-9.66664 46.8334,-9.66664 10.4997,0 18.8331,1.33324 25.4996,3.8331 6.50035,2.66686 12.3335,7.83359 17.5002,15.6668l35.4999 -172.166 -23.5 -7.83359c-15.6668,49.6668 -36.4999,87.667 -62.6668,113.833 -25.9998,26.1668 -59.9999,39.1668 -101.667,39.1668 -54.8332,0 -97.1666,-29.9999 -127.167,-90.0002 -29.9999,-59.9999 -45.0003,-134.333 -45.0003,-223 0,-96.4998 13.0003,-172.166 39.1668,-226.833 26.0002,-54.8332 69.1667,-82.1666 129.167,-82.1666 41.6666,0 77.5001,15 107.5,44.8333 29.9999,30.0003 50.3333,69.6669 60.6667,119.167l23.5 -11.6667c-12.9999,-54.6666 -37.1667,-99.4999 -72.3334,-134.667 -35.1667,-35.1667 -76.1665,-52.6665 -123.166,-52.6665z" /></glyph>
   <glyph
   id="glyph65"
   horiz-adv-x="1000"
   unicode="国"><path
     id="path67"
     d="M242.167 648.5l421.833 0 47 46.8334 70.3333 -70.3333 -257.833 0 0 -183.667 105.333 0 47 47 70.3333 -70.3333 -222.667 0 0 -257.833 132.833 0 54.6666 54.6669 77.9999 -78.1669 -441.333 0c-33.8334,0 -65.1666,-3.8331 -93.8333,-11.6667l-35.0001 35.1667 250 0 0 257.833 -105.5 0 -54.6666 -11.6667 -35.1667 35.0001 195.333 0 0 183.667 -136.834 0 -54.6666 -11.6667 -35.1667 35.1667zm324.167 -261.833c57.3334,-26.0002 97,-49.5002 119.167,-70.3333 22.1667,-20.8335 24.8332,-46.1669 7.8332,-76.1669 -16.833,-29.8333 -31.833,-27.3331 -44.8333,7.83359 -12.9999,35.1667 -44.3331,77.4997 -93.8333,127l11.6667 11.6667zm-429.667 -472.667c2.66686,57.3334 4.0001,113.334 4.0001,168l0 554.667c0,49.5002 -1.33324,106.833 -4.0001,172l58.6667 -35.1667 609.334 0 31.3332 35.1667 62.5001 -50.8335 -35.1667 -23.5 0 -617.167c0,-52.0001 1.33324,-105.5 3.8331,-160.167l-58.4997 -23.3334 0 77.9999 -613.334 0 0 -70.3333 -58.6667 -27.3335zm58.6667 836l0 -714.834 613.334 0 0 714.834 -613.334 0z" /></glyph>
   <glyph
   id="glyph69"
   horiz-adv-x="500"
   unicode="m"><path
     id="path71"
     d="M24.3334 454c13.5,0 27.1667,1.33342 40.8334,3.99997 13.6664,2.66683 24.4998,6.6668 32.6665,12.0002l8.16661 0 0 -66.6669c13.0003,20.8335 27.1667,35.8333 42.8335,45 15.5001,9.16668 32.3334,13.6667 50.5001,13.6667 23.3334,0 41.5001,-4.5 54.5,-13.6667 12.8333,-9.16668 20.6665,-24.1665 23.3331,-45 12.8336,20.8335 27.8334,35.8333 44.6669,45 16.8333,9.16668 34.3332,13.6667 52.4999,13.6667 31.1666,0 52.4999,-9.16668 64.1667,-27.3334 11.6666,-18.3331 17.5,-41.8331 17.5,-70.6666l0 -297.5c0,-10.4998 2.66655,-17.6666 7.83326,-21.6666 5.16671,-3.83329 13,-5.83342 23.3334,-5.83342l7.83326 0 0 -23 -133 0 0 23 7.83326 0c10.3334,0 18.1667,2.00013 23.3334,5.83342 5.16671,3.99997 7.83326,11.1668 7.83326,21.6666l0 294c0,28.6668 -3.16658,47.6665 -9.66671,56.8332 -6.49984,9.16668 -16.1666,13.6667 -28.9998,13.6667 -18.1667,0 -34.1668,-6.49984 -48.5002,-19.6665 -14.1667,-13 -25.1665,-31.3333 -32.8331,-54.8334l0 -290c0,-10.4998 2.66655,-17.6666 7.83326,-21.6666 5.16671,-3.83329 13,-5.83342 23.3334,-5.83342l7.83326 0 0 -23 -133 0 0 23 7.83354 0c10.3331,0 18.1667,2.00013 23.3334,5.83342 5.16642,3.99997 7.83326,11.1668 7.83326,21.6666l0 294c0,23.5001 -2.50016,41.1667 -7.66658,52.8333 -5.16671,11.8335 -15.5001,17.6666 -31.0003,17.6666 -18.1667,0 -34.1665,-6.49984 -48.4999,-19.6665 -14.1667,-13 -25.1665,-32.6667 -32.8334,-58.6667l0 -286.167c0,-10.4998 2.66683,-17.6666 7.83354,-21.6666 5.16671,-3.83329 13,-5.83342 23.3334,-5.83342l7.83326 0 0 -23 -133 0 0 23 7.83354 0c10.3331,0 18.1667,2.00013 23.3331,5.83342 5.16671,3.99997 7.83354,11.1668 7.83354,21.6666l0 341c0,7.83354 -1.50009,13.6667 -4.33332,17.6669 -2.83351,3.83329 -8.66665,5.83313 -17.3336,5.83313l-17.3333 0 0 23 12.3335 0z" /></glyph>
   <glyph
   id="glyph73"
   horiz-adv-x="500"
   unicode="K"><path
     id="path75"
     d="M480 15.9999l-168.166 0 0 23 11.8332 0c15.5001,0 24.6668,5.16671 27.3334,15.6668 2.49987,10.3334 -1.33342,24.8332 -11.8332,42.9999l-131.333 284.833 -62.8333 -89.1666 0 -223c0,-10.4998 3.33326,-18.3334 9.83339,-23.4998 6.49984,-5.16671 15.1665,-7.83354 25.4999,-7.83354l23.6667 0 0 -23 -181 0 0 23 23.6667 0c13,0 22.1666,2.66683 27.5,7.83354 5.16642,5.16642 7.83326,13 7.83326,23.4998l0 559.333c0,10.5001 -2.66683,18.3334 -7.83326,23.5001 -5.33339,5.16671 -14.5001,7.83326 -27.5,7.83326l-23.6667 0 0 23 181 0 0 -23 -23.6667 0c-10.3334,0 -19.0001,-2.66655 -25.4999,-7.83326 -6.50013,-5.16671 -9.83339,-13 -9.83339,-23.5001l0 -286 182.833 262.5c13,18.3334 16.8333,32 11.6668,41.1667 -5.16671,9.16668 -17.0002,13.6667 -35.1669,13.6667l-15.6665 0 0 23 168.333 0 0 -23 -7.83354 0c-13,0 -25.9999,-3.83329 -38.9999,-11.6666 -13,-7.83326 -25.9999,-19.6668 -38.9999,-35.3333l-123.333 -175 166 -357c7.66658,-15.6668 16.1666,-26.6666 25.3332,-33.1668 9,-6.49984 16.1668,-9.83339 21.3335,-9.83339l19.4998 0 0 -23z" /></glyph>
   <glyph
   id="glyph77"
   horiz-adv-x="500"
   unicode=":"><path
     id="path79"
     d="M297 425.5c0,-15.4998 -5.16671,-28.4998 -15.5001,-38.9999 -10.4998,-10.3334 -23.4998,-15.4998 -38.9999,-15.4998 -15.4998,0 -28.5001,5.16642 -38.9999,15.4998 -10.3334,10.5001 -15.5001,23.5001 -15.5001,38.9999 0,15.5001 5.16671,28.5001 15.5001,39.0002 10.4998,10.3334 23.5001,15.4998 38.9999,15.4998 15.5001,0 28.5001,-5.16642 38.9999,-15.4998 10.3334,-10.5001 15.5001,-23.5001 15.5001,-39.0002zm0 -367c0,-15.5001 -5.16671,-28.5001 -15.5001,-38.9999 -10.4998,-10.3334 -23.4998,-15.5001 -38.9999,-15.5001 -15.4998,0 -28.5001,5.16671 -38.9999,15.5001 -10.3334,10.4998 -15.5001,23.4998 -15.5001,38.9999 0,15.5001 5.16671,28.5001 15.5001,38.9999 10.4998,10.3334 23.5001,15.5001 38.9999,15.5001 15.5001,0 28.5001,-5.16671 38.9999,-15.5001 10.3334,-10.4998 15.5001,-23.4998 15.5001,-38.9999z" /></glyph>
   <glyph
   id="glyph81"
   horiz-adv-x="500"
   unicode="7"><path
     id="path83"
     d="M442 656.667c-54.8334,-88.4999 -98.5,-175.167 -131,-259.833 -32.6667,-84.6666 -48.8333,-158.333 -48.8333,-220.833 0,-10.3334 0.500031,-25.3332 1.83317,-44.8333 1.33342,-19.6668 2.00013,-42.3334 2.00013,-68.5001 0,-20.8332 -3.33326,-35.1666 -9.83339,-42.9999 -6.49984,-7.83354 -17.5,-11.6668 -33.1668,-11.6668 -13.1666,0 -24.1665,4.5 -33.3332,13.6667 -9.16668,9.16668 -13.6667,25.3335 -13.6667,48.8333 0,49.5 10.9998,110.667 33.1668,183.5 22.1666,72.8331 81.4997,196.5 177.833,371l-195.333 0c-28.6665,0 -51.3332,-9 -68.3331,-27.1667 -16.8335,-18.1667 -29.1668,-45.5 -37.0001,-81.8334l-23.3334 3.83357 27.3334 164.167 351.667 0 0 -27.3334z" /></glyph>
   <glyph
   id="glyph85"
   horiz-adv-x="500"
   unicode="Y"><path
     id="path87"
     d="M371.833 614c2.50016,15.6665 0.666709,27.5 -5.83313,35.3333 -6.50013,7.83326 -19.0001,11.6666 -37.1667,11.6666l-7.83326 0 0 23 152 0 0 -23 -11.6666 0c-13.0003,0 -24.8335,-4.5 -35.1669,-13.6667 -10.4998,-9.16668 -19.4998,-22.8334 -27.3334,-41.1667l-120.833 -309 0 -226.833c0,-10.4998 3.16687,-18.3334 9.66671,-23.4998 6.50013,-5.16671 15.0001,-7.83354 25.3332,-7.83354l35.0002 0 0 -23 -203 0 0 23 34.9999 0c13,0 22,2.66683 27.1667,7.83354 5.16671,5.16642 7.83326,13 7.83326,23.4998l0 203.333 -132.5 344.333c-5.16671,13 -11.6668,23.5001 -19.5001,31.3333 -7.83326,7.83326 -18.1667,11.6666 -31.1666,11.6666l-7.83326 0 0 23 172.333 0 0 -23 -23.4998 0c-15.6668,0 -24.6668,-3.83329 -27.3334,-11.6666 -2.66683,-7.83326 -1.33342,-19.6668 3.99997,-35.3333l104.333 -288 8.66665 0 109.333 288z" /></glyph>
   <glyph
   id="glyph89"
   horiz-adv-x="1000"
   unicode="翻"><path
     id="path91"
     d="M449.167 261.666l0 -187.5c0,-39.0002 1.33363,-78.0003 4.0001,-117.167l-50.8335 -23.3334 0 58.5 -230.5 0 0 -54.6669 -54.6666 -23.5c2.66647,62.5001 4.0001,200.667 4.0001,414.167 -23.5,-18.3333 -49.5002,-37.8335 -78.1669,-58.6667l-11.6667 11.8333c33.8334,28.5001 66.3336,61.8333 97.5002,99.4999 31.3332,37.8335 59.9999,80.1666 86.0001,127l-27.3335 0c-33.8334,0 -65.1666,-3.99971 -93.6667,-11.6667l-35.1667 35.1667 199.167 0 0 175.667c-39.0002,-2.49987 -96.3336,-6.49996 -171.833,-11.6667l0 15.6668c88.5,10.3335 155.5,21.4999 201.166,33.1666 45.5001,11.6667 85.1667,27.9999 119.167,48.8334l46.8334 -62.5001c-44.3331,-5.16673 -92.5001,-11.6667 -144.5,-19.4999l0 -179.667 19.4999 0c31.1666,59.8337 52.0001,113.167 62.4998,160l62.5001 -42.8337c-20.8331,-15.6664 -39.8332,-34.4999 -56.6666,-56.6666 -17,-22.1667 -33.1666,-42.3334 -48.8334,-60.5001l58.6667 0 35.0001 35.0001 54.8332 -58.5 -187.5 0 0 -23.5c59.8333,-18.1667 99.4999,-33.833 119,-46.8334 19.6669,-12.9999 32,-25.9998 37.1667,-38.9998 5.16673,-12.9999 3.33328,-28.6667 -5.83315,-47 -9.16682,-18.1667 -25.3334,-9.66664 -48.8334,25.5 -23.5,35.1667 -57.3334,65.6664 -101.5,91.8333 0,-67.8335 1.16663,-113.334 3.8331,-136.834l-58.6667 -15.6664c2.66686,39.1664 4.0001,96.4998 4.0001,172 -31.3336,-52.1667 -75.5001,-104.167 -132.833,-156.333l46.8334 -35.1667 230.5 0 27.3335 35.1667 50.8335 -50.6665 -31.3336 -19.6669zm-328 414.167c36.3333,-20.8335 61.8333,-37.8335 76.1665,-50.8335 14.3336,-12.9999 20.1667,-27.3331 17.5002,-42.9999 -2.66686,-15.6668 -9.83364,-27.3335 -21.5003,-35.1667 -11.6667,-7.8332 -20.8331,0 -27.3331,23.5 -6.49996,23.5 -24.0002,56.0002 -52.6669,97.6668l7.83359 7.8332zm50.6665 -402.333l0 -113.334 86.0001 0 0 113.334 -86.0001 0zm132.833 0l0 -113.334 93.8333 0 0 113.334 -93.8333 0zm-132.833 -136.834l0 -121 86.0001 0 0 121 -86.0001 0zm132.833 0l0 -121 93.8333 0 0 121 -93.8333 0zm207 -125c62.5001,-7.8332 98.3332,-10.9999 107.5,-9.66664 9.16643,1.33324 15,7.16678 17.4998,17.4998l0 296.834c-65,-80.6668 -101.5,-130.167 -109.333,-148.333l-46.8334 54.6666c20.8331,5.16673 72.8332,44.3331 156.166,117.167l0 355.5 -31.1666 0c-33.8334,0 -65.1666,-3.99971 -93.8333,-11.6667l-35.1667 35.1667 156.333 0 35.1667 35.0001 50.8331 -50.6665 -31.3332 -23.5 0 -668c0,-23.3334 -4.49991,-41.6666 -13.6667,-54.6666 -9.16643,-13.0003 -27.9999,-26.0002 -56.6666,-39.0002 -7.8332,36.4999 -42.9999,62.5001 -105.5,78.1665l0 15.5002zm211 0c59.8333,-10.3335 96.3332,-15 109.333,-13.6667 13.0003,1.33324 19.5003,13.6667 19.5003,37.1667l0 293c-59.8333,-65.1666 -96.3336,-110.667 -109.334,-136.834l-42.9999 54.8336c23.5,7.66659 74.3334,44.1665 152.333,109.333l0 335.834 0 0c-31.1666,0 -61.1669,-3.83349 -89.8336,-11.6667l-35.1663 35.1667 121.166 0 35.1667 35.1667 54.6666 -58.6667 -35.1667 -15.5002 0 -660.167c0,-26.0002 -5.83315,-46.3335 -17.4998,-60.6667 -11.8333,-14.1669 -32,-26.6667 -60.6667,-37.0001 -7.8332,31.1666 -41.6666,57.3334 -101.5,78.1665l0 15.5002zm-211 558.667c41.6666,-41.6666 69.0001,-71.0002 82.1666,-87.8332 12.9999,-17 17.4998,-35.1667 13.6667,-54.8336 -4.0001,-19.4999 -12.5001,-31.8334 -25.5,-37.0001 -12.9999,-5.16634 -22.8332,11.0003 -29.3335,48.8334 -6.49996,37.6669 -23.9998,78.6667 -52.6665,123l11.6667 7.8332zm211 3.83349c44.3335,-41.6666 72.3334,-71.5 84.0001,-89.8336 11.6667,-18.1667 15.6664,-35.8331 11.6667,-52.6665 -3.83349,-17 -12.3335,-29.3335 -25.3334,-37.1667 -12.9999,-7.8332 -22.8336,6.49996 -29.3335,42.9999 -6.49996,36.5003 -23.9998,79.5002 -52.6665,128.833l11.6667 7.83359z" /></glyph>
   <glyph
   id="glyph93"
   horiz-adv-x="1000"
   unicode="中"><path
     id="path95"
     d="M519.5 566.333l0 -257.666 281.333 0 0 257.666 -281.333 0zm-58.5 23.5c0,101.5 -1.33324,178.334 -3.99971,230.5l93.8333 -43.0003 -31.3336 -31.1666 0 -156.333 273.5 0 31.1666 46.8334 66.5002 -50.6665 -35.1667 -31.3336 0 -226.5c0,-28.6667 1.33324,-58.6667 3.8331,-89.8332l-58.5 -23.5 0 70.3333 -281.333 0c0,-198 1.33363,-313.834 4.0001,-347.667l-66.4999 -35.1667c2.66647,59.8337 3.99971,187.5 3.99971,382.834l-269.667 0 0 -46.8334 -58.4997 -31.3336c2.66647,46.8334 3.8331,114.667 3.8331,203.167 0,88.5 -1.16663,160.167 -3.8331,214.833l58.4997 -35.1667 269.667 0zm-269.667 -23.5l0 -257.666 269.667 0 0 257.666 -269.667 0z" /></glyph>
   <glyph
   id="glyph97"
   horiz-adv-x="500"
   unicode="x"><path
     id="path99"
     d="M259.5 287.667l69.6668 104.167c7.99994,10.5001 11.1665,19.5001 10.0001,27.3334 -1.33342,7.83326 -11.1668,11.8332 -29.6668,11.8332l-23.3334 0 0 23 154.833 0 0 -23 -19.5001 0c-5.3331,0 -11.8332,-0.666709 -19.6665,-1.99984 -7.66687,-1.33342 -14.1667,-5.83342 -19.5001,-13.6667l-104.833 -157.167 109.167 -180c7.83326,-13 17.6666,-22.8334 29.3335,-29.3335 11.6666,-6.49984 20.1665,-9.83339 25.3332,-9.83339l15.6668 0 0 -23 -171.833 0 0 23 23.4998 0c15.6668,0 24.0001,3.99997 25.3335,11.8335 1.33342,7.83326 -0.666709,16.8333 -5.83342,27.3334l-82.6668 132.166 -90.8331 -136c-2.66683,-13.1666 -2.00013,-22.3333 1.83317,-27.4997 3.99997,-5.16671 11.1668,-7.83354 21.4999,-7.83354l11.8335 0 0 -23 -154.833 0 0 23 23.5001 0c10.3334,0 22.1666,3.99997 35.1666,11.8335 13,7.83326 23.3334,19.4998 31.1666,35.1666l102.5 153.333 -102.834 164.167c-2.66655,5.33339 -7.83326,11.1668 -15.6665,17.6666 -7.83326,6.50013 -18.3334,9.83339 -31.3333,9.83339l-19.5001 0 0 23 169.5 0 0 -23 -11.6666 0c-13,0 -20.8332,-3.99997 -23.5001,-11.8332 -2.66655,-7.83326 -1.33313,-16.8333 3.99997,-27.3334l63.1667 -104.167z" /></glyph>
   <glyph
   id="glyph101"
   horiz-adv-x="500"
   unicode="4"><path
     id="path103"
     d="M359.333 89.8333c0,-18.1667 5.33339,-31.1666 15.6668,-38.9999 10.4998,-7.83354 24.6665,-11.8335 42.9999,-11.8335l35.1666 0 0 -23.3331 -257.833 0 0 23.3331 42.9999 0c20.8332,0 35.8333,3.99997 44.8333,11.8335 9.16668,7.83326 13.6667,20.8332 13.6667,38.9999l0 129 -261.667 0 0 19.5001 285.167 453 38.9999 0 0 -449.167 105.5 0 0 -23.3334 -105.5 0 0 -129zm-66.3333 504l-222.667 -351.667 226.5 0 0 351.667 -3.83329 0z" /></glyph>
   <glyph
   id="glyph105"
   horiz-adv-x="500"
   unicode=" " />
   <glyph
   id="glyph107"
   horiz-adv-x="500"
   unicode="1"><path
     id="path109"
     d="M286 695l0 -593.5c0,-20.8331 6.49996,-36.4999 19.5003,-46.8334 12.9999,-10.5001 31.1666,-15.6664 54.5,-15.6664l38.9998 0 0 -23.0002 -285 0 0 23.0002 35.0001 0c25.9998,0 44.8333,5.16634 56.5,15.6664 11.6667,10.3335 17.4998,26.0002 17.4998,46.8334l0 472.333c0,10.5001 -3.16668,18.8335 -9.66664,25.3334 -6.49996,6.49996 -16.3332,9.83325 -29.3331,9.83325l-70.0001 0 0 23.0002 35.1667 0c31.3332,0 56.6666,5.33333 76.1665,15.8334 19.6669,10.5001 34.6669,26.1665 45.0003,47.1666l15.6664 0z" /></glyph>
   <glyph
   id="glyph111"
   horiz-adv-x="1000"
   unicode="邮"><path
     id="path113"
     d="M339.833 597.667l0 -242.167 121.166 0 0 242.167 -121.166 0zm-171.833 0l0 -242.167 121 0 0 242.167 -121 0zm0 -265.667l0 -246 121 0 0 246 -121 0zm171.833 0l0 -246 121.166 0 0 246 -121.166 0zm-226.5 -367.167c2.50026,41.6666 3.83349,82 3.83349,121.167l0 445.333c0,39.0002 -1.33324,80.6668 -3.83349,125l54.6669 -35.1667 121 0c0,77.9999 -1.16663,143.167 -3.8331,195.167l78.1665 -42.8333 -23.5 -31.3336 0 -121 117.167 0 27.3331 35.1667 54.6669 -47 -27.3335 -23.3334 0 -457.167c0,-23.3334 1.33324,-65 4.0001,-125l-54.6669 -19.5003 0 78.1669 -293 0 0 -74.1668 -54.6669 -23.5zm648.333 441.5l86.0001 273.334 -183.667 0 0 -742.167 -54.6666 -31.3332c2.66647,78.1665 3.99971,134.167 3.99971,168l0 519.666c0,49.3332 -1.33324,98.8334 -3.99971,148.333l50.8331 -38.9998 179.667 0 38.9998 38.9998 62.5001 -62.4998c-25.9998,-10.3335 -51.3333,-42.3334 -76.1665,-95.6668 -24.667,-53.3333 -51.3337,-111.334 -80,-173.833 78.1665,-78.1669 120.5,-146.5 127,-205.167 6.49996,-58.5 -2.00005,-102.833 -25.5,-132.666 -23.3334,-29.9999 -53.3333,-48.8334 -89.8336,-56.6666 -5.16634,38.9998 -42.9999,66.3332 -113.167,82l0 19.4999c44.1669,-5.16673 82.6668,-8.50001 115.167,-9.66664 32.5002,-1.33324 50.8335,16.8334 54.6669,54.6666 3.99971,37.6665 -3.16668,80 -21.5003,126.833 -18.1667,47 -41.6666,86.0001 -70.3333,117.333z" /></glyph>
   <glyph
   id="glyph115"
   horiz-adv-x="1000"
   unicode="外"><path
     id="path117"
     d="M687.5 441.333l0 -347.5c0,-70.3332 1.33342,-125 3.83329,-164.167l-62.5 -27.3334c2.66683,49.5 3.99997,106.833 3.99997,171.833l0 570.333c0,73.0001 -1.33313,127.667 -3.99997,164.167l97.6669 -42.9999 -39.0002 -31.3333 0 -273.333c93.8333,-31.3333 158.833,-58.0002 195.333,-80.1669 36.5,-22.1666 50.8334,-54 42.9999,-95.6665 -7.83326,-41.6667 -27.3334,-39.6669 -58.6667,5.83313 -31.1666,45.6667 -91.1665,95.6667 -179.667,150.333zm-402.333 367.333l93.6666 -50.8331 -31.1666 -19.5001c-20.8335,-49.5 -41.6667,-101.667 -62.5,-156.333l168 0 31.1666 42.9999 78.1668 -66.3333c-25.9999,2.49987 -58,-53.5 -95.6667,-168 -37.8332,-114.667 -90.5,-209.667 -158.167,-285.166 -67.8331,-75.5002 -148.5,-134.167 -242.333,-175.833l-7.66658 11.6666c119.667,75.6666 208.333,163.5 265.5,263.667 57.3333,100.333 101.667,218.167 132.833,353.667l-179.667 0c-20.8332,-49.5 -41.6665,-92.5002 -62.5,-129 83.3335,-28.6668 127.667,-54 132.833,-76.1669 5.16671,-22.1666 2.66655,-43.6666 -7.83326,-64.4998 -10.3334,-20.8335 -23.5001,-16.1668 -39.0002,13.6667 -15.6665,29.9999 -46.9998,67.1666 -93.8333,111.333 -46.8334,-70.1665 -91.1667,-125 -132.833,-164l-11.6668 11.6668c52.1668,67.8334 99.6667,157 142.5,267.667 43.0002,110.667 69.6668,203.667 80.1669,279.333z" /></glyph>
   <glyph
   id="glyph119"
   horiz-adv-x="500"
   unicode="M"><path
     id="path121"
     d="M438 70.3332c0,-10.4998 3.33326,-18.3334 9.83339,-23.4998 6.49984,-5.16671 14.9998,-7.83354 25.4999,-7.83354l15.6665 0 0 -23 -169 0 0 23 19.6668 0c13,0 22.1666,2.66683 27.4997,7.83354 5.16671,5.16642 7.83354,13 7.83354,23.4998l0 512.5 -7.83354 0 -132.833 -566.834 -23.3334 0 0 0 -121.167 555 -7.83326 0 0 -500.667c0,-10.4998 3.33326,-18.3334 9.83339,-23.4998 6.49984,-5.16671 14.9998,-7.83354 25.4999,-7.83354l11.6666 0 0 -23 -117 0 0 23 11.8335 0c13,0 22.1666,2.66683 27.3334,7.83354 5.16642,5.16642 7.83326,13 7.83326,23.4998l0 559.333c0,10.5001 -2.33348,18.3334 -7.16683,23.5001 -4.83307,5.16671 -13.3333,7.83326 -25.3332,7.83326l-14.5001 0 0 23 109.5 0 110.5 -506.833 8.00022 0 123.166 506.833 125.833 0 0 -23 -15.6665 0c-10.5001,0 -19.0001,-2.66655 -25.4999,-7.83326 -6.50013,-5.16671 -9.83339,-13 -9.83339,-23.5001l0 -559.333z" /></glyph>
   <glyph
   id="glyph123"
   horiz-adv-x="1000"
   unicode="标"><path
     id="path125"
     d="M746.167 347.667c98.8333,-99 155.5,-164.667 169.834,-197.333 14.3331,-32.5001 11.6666,-63.6667 -7.83354,-93.6669 -19.4998,-29.9999 -37.6665,-14.9998 -54.6667,44.8333 -16.8333,60.0001 -56.6665,139.334 -119.167,238.334l11.8332 7.83326zm-316.5 371.166l347.666 0 46.8334 46.8334 70.3332 -70.3332 -398.333 0 -35.1666 -7.83354 -31.3333 31.3333zm54.6664 -707.167c70.3335,-13 112,-18.1667 125,-15.4998 13,2.49987 19.4998,13 19.4998,31.1666l0 433.667 -191.333 0 -35.1666 -7.83354 -31.1666 31.1666 464.833 0 50.6667 50.8334 74.3335 -74.1665 -273.5 0 0 -464.833c-2.66655,-41.6667 -31.1666,-71.6666 -86,-90 0,31.3333 -38.9999,60.0001 -117.167,86l0 19.4998zm4.00025 343.833l85.8331 -50.8334 -38.9999 -19.4998c-65.1665,-117.167 -134.167,-211 -207,-281.333l-11.8332 11.8335c73.0001,96.3332 130.333,209.667 172,339.833zm-226.667 70.3332c0,-281.333 1.33342,-448 3.99997,-500l-62.5 -23.4998c2.49987,112 3.83329,265.667 3.83329,461 -38.9999,-91.1665 -89.8333,-175.833 -152.333,-254l-11.6668 15.6665c72.8334,117.167 127.5,256.5 164,418l-97.6666 0 -35.1666 -7.83326 -31.1669 31.1666 164 0c0,99 -1.33342,185 -3.83329,257.833l93.6666 -46.8334 -35.1666 -27.3334 0 -183.667 50.8334 0 42.9999 43.0002 66.3333 -66.3335 -160.167 0 0 -97.6666c49.5,-25.9999 84.6666,-50.1667 105.5,-72.3333 20.8335,-22.1666 23.5001,-46.8332 7.83354,-74.1665 -15.6668,-27.3334 -31.8334,-19.5001 -48.8333,23.4998 -17.0002,42.8335 -38.3335,77.3334 -64.5001,103.5z" /></glyph>
   <glyph
   id="glyph127"
   horiz-adv-x="1000"
   unicode="："><path
     id="path129"
     d="M232.5 111.333c22,-14.3334 32.5001,-33.8332 31.1666,-58.6667 -1.33313,-24.6665 -13,-43.4999 -35.1666,-56.4999 -22.1666,-13.1666 -44.3333,-13.1666 -66.3333,0 -22.1666,13 -33.8335,32.5001 -35.1666,58.5 -1.33342,25.9999 10.3331,45.6667 35.1666,58.6667 24.6668,13 48.1666,12.3333 70.3332,-2.00013zm1.83345 234.333c23.5001,-11.6666 35.1666,-31.1666 35.1666,-58.5 0,-27.3334 -13.6667,-46.9998 -41,-58.6667 -27.3334,-11.6666 -51.3332,-10.3331 -72.1667,3.99997 -20.8332,14.1667 -30.6666,33.8335 -29.3332,58.5 1.33313,24.8335 13.6667,43.0002 37.0001,54.6667 23.4998,11.8335 46.9998,11.8335 70.3332,0z" /></glyph>
   <glyph
   id="glyph131"
   horiz-adv-x="1000"
   unicode="画"><path
     id="path133"
     d="M824.167 23.5001c0,237 -1.16674,416.667 -3.83329,539l82.0001 -42.9999 -27.3334 -27.3334c0,-289 1.33313,-466.167 3.83329,-531.167l-54.6667 -27.3334 0 66.3333 -648.333 0 -35.1666 -35.1666 -50.8334 46.8332 31.3333 31.3333c0,244.833 -1.33342,406.167 -3.99997,484.333l82.0001 -38.9999 -27.3334 -31.3333 0 -433.5 652.333 0zm-546.833 42.8332c2.66683,96.5001 4.00025,191.5 4.00025,285.167 0,93.8333 -1.33342,187.5 -4.00025,281.333l54.6667 -31.3333 328.167 0 35.1669 35.1669 54.6664 -54.6667 -35.1666 -23.3334c0,-239.667 1.33342,-389.333 3.99997,-449.333l-54.8331 -31.1666 0 46.8332 -332 0 0 -35.1666 -54.6667 -23.5001zm54.6667 511.834l0 -195.333 152.333 0 0 195.333 -152.333 0zm199.333 0l0 -195.333 132.667 0 0 195.333 -132.667 0zm-199.333 -218.833l0 -210.833 152.333 0 0 210.833 -152.333 0zm199.333 0l0 -210.833 132.667 0 0 210.833 -132.667 0zm-461 382.833l707 0 54.6667 54.6667 86 -78.0001 -718.833 0c-33.8335,0 -65.0001,-3.99997 -93.6666,-11.8332l-35.1669 35.1666z" /></glyph>
   <glyph
   id="glyph135"
   horiz-adv-x="500"
   unicode="9"><path
     id="path137"
     d="M109 477.167c0,-57.4999 10.9998,-101.167 33.1665,-131.167 22.1669,-29.9999 50.3334,-45 84.1669,-45 39.1666,0 73.0001,18.3334 101.667,54.8334 28.6668,36.5 43.0002,70.4999 43.0002,101.667 0,62.6666 -10.5001,113 -31.3333,150.833 -20.8335,37.8332 -54.6667,56.6665 -101.667,56.6665 -44.3333,0 -76.8333,-17.6666 -97.6666,-52.8333 -20.8335,-35.1666 -31.3333,-80.1666 -31.3333,-135zm105.833 -211.167c-51.9999,0 -93.6666,16.3332 -125,48.8333 -31.1666,32.6667 -46.8334,85.3333 -46.8334,158.333 0,62.5 16.8335,114.667 50.6667,156.333 33.8335,41.6667 82.0001,62.5 144.5,62.5 65.0001,0 115.833,-25.9999 152.167,-78.1665 36.5,-52.1668 54.6667,-127.667 54.6667,-226.667 0,-109.5 -21.4999,-200 -64.5001,-271.667 -42.8332,-71.6666 -102,-107.5 -177.5,-107.5 -33.8335,0 -63.1667,7.83326 -87.8335,23.5001 -24.8332,15.6668 -37.1665,36.5 -37.1665,62.5 0,10.5001 3.33326,20.9999 9.8331,31.3333 6.50013,10.5001 17.5003,15.6668 33.1668,15.6668 15.5001,0 25.9999,-5.83342 31.1666,-17.6666 5.16671,-11.8335 7.83326,-25.5002 7.83326,-41.1667 0,-10.5001 1.33342,-19.0001 3.83357,-25.5002 2.66655,-6.66652 5.3331,-11.1665 7.83326,-13.8334 2.66655,-2.66655 7.16655,-4.5 13.6667,-5.83313 6.49984,-1.33342 13.6667,-2.00013 21.4999,-2.00013 47.0001,0 84.6666,26.1666 113.333,78.3334 28.6668,52.1665 45.6667,139.5 50.8334,262.167 -13.0003,-31.3333 -32.5001,-57.3335 -58.5,-78.1668 -26.1669,-20.8332 -58.6667,-31.3333 -97.6669,-31.3333z" /></glyph>
   <glyph
   id="glyph139"
   horiz-adv-x="1000"
   unicode="色"><path
     id="path141"
     d="M523.5 503.833l0 -203 214.833 0 0 203 -214.833 0zm265.5 -15.4998l0 -156.334c0,-28.6665 1.33313,-57.3333 3.99997,-85.8333l-54.6667 -19.6665 0 50.8331 -496.167 0 0 -211c-2.49987,-44.1666 18.3334,-66.3333 62.5,-66.3333l515.667 0c28.6665,0 45.5,24.1668 50.8334,72.3333 5.16642,48.1666 7.66658,95.6667 7.66658,142.5l19.6665 0c0,-51.9999 2.50016,-95 7.83354,-128.833 5.16671,-33.8335 22,-54.6667 50.6665,-62.5 -25.9999,-47.0001 -64.9998,-70.3335 -117.167,-70.3335l-574.167 0c-52.1665,0 -76.8333,28.6668 -74.3332,85.8333l0 468.833c-41.6667,-36.5 -85.8333,-68.9998 -132.667,-97.6666l-7.83326 11.6666c54.6667,47.0001 110,105.5 166,175.833 55.9998,70.3335 102.167,147.167 138.667,230.5l82.0001 -54.6667 -31.1666 -11.8332 -39.1669 -46.8334 222.667 0 35.1666 43.0002 74.1668 -74.1668c-23.3334,-2.66655 -49.5,-15.6665 -78.0001,-39.1666 -28.6668,-23.3334 -65.1665,-62.5 -109.5,-117.167l218.833 0 31.1666 38.9999 62.5 -50.6667 -35.1666 -27.3331zm-433.5 203c-46.8334,-57.1666 -89.8333,-106.667 -129,-148.333l19.6665 -15.6665 242.167 0 97.6666 164 -230.5 0zm-113.333 -187.5l0 -203 230.5 0 0 203 -230.5 0z" /></glyph>
   <glyph
   id="glyph143"
   horiz-adv-x="500"
   unicode="6"><path
     id="path145"
     d="M121 281.667c0,-78.3332 13.6667,-139 41,-182 27.5,-43.1668 60.6668,-64.6668 99.8334,-64.6668 38.9999,0 69.0001,14.3334 89.8333,43.0002 20.8332,28.8332 31.3333,82.3331 31.3333,160.5 0,52.3332 -11.0001,92.6665 -33.1668,121.5 -22.1666,28.6668 -49,42.9999 -80.1666,42.9999 -28.6668,0 -55.5001,-8.49997 -80.1666,-25.4999 -24.8335,-16.8333 -47.6668,-48.8333 -68.5001,-95.8334zm152.333 160.334c62.5,0 107.333,-20.8335 134.667,-62.5 27.3334,-41.8334 41,-88.6669 41,-140.833 0,-78.1668 -18.8334,-136.167 -56.6665,-174 -37.6668,-37.8334 -81.1667,-56.6668 -130.667,-56.6668 -70.3332,0 -123.667,26.6666 -160,80.1666 -36.4997,53.3336 -54.6664,130.833 -54.6664,232.5 0,119.833 22.1666,211.667 66.3333,275.5 44.3333,63.8331 104.167,95.8331 179.667,95.8331 36.3334,0 65.6665,-10.4998 87.8332,-31.3333 22.1666,-20.8332 33.1668,-38.9999 33.1668,-54.6667 0,-15.6665 -3.33326,-27.4997 -9.83339,-35.3333 -6.49984,-7.83326 -17.5,-11.6666 -33.1665,-11.6666 -13.0003,0 -22.6667,3.33326 -29.1668,9.83339 -6.49984,6.49984 -9.83339,16.3332 -9.83339,29.4999 0,5.16671 0.666709,10.3334 2.00013,15.6668 1.33342,5.16642 1.83317,10.4998 1.83317,15.6665 0,10.5001 -3.83329,19.0001 -11.6666,25.4999 -7.83326,6.50013 -22.1666,9.83339 -42.9999,9.83339 -44.1669,0 -82.0001,-20.1665 -113.333,-60.6665 -31.1666,-40.3333 -46.8334,-128.333 -46.8334,-264 15.6668,33.8335 37.1667,59.3334 64.5001,76.3333 27.3334,16.8335 56.4999,25.3335 87.8332,25.3335z" /></glyph>
  </font>
  <font
   vert-adv-y="90"
   vert-origin-y="90"
   vert-origin-x="45"
   horiz-origin-y="0"
   horiz-origin-x="0"
   font-weight="400"
   font-variant="normal"
   horiz-adv-x="750"
   id="FontID1">
	<font-face
   id="font-face148"
   font-family="Adobe 仿宋 Std R">
	</font-face>
   <missing-glyph
   id="missing-glyph150"><path
     id="path152"
     d="M0 0z" /></missing-glyph>
   <glyph
   id="glyph154"
   horiz-adv-x="1000"
   unicode="万"><path
     id="path156"
     d="M1000 750l-250 0c0,0 0,0 -500,0l0 0c0,0 0,0 250,0 0,0 0,-250 0,-250 -250,-250 -250,-250 -500,-500l0 0c250,0 500,250 500,500l0 0c0,0 0,0 250,0 0,-250 -250,-250 -250,-500l0 250 0 0c0,-250 0,-250 0,-250 0,0 0,0 0,0 0,0 250,250 250,500 0,0 0,0 0,0 0,0 0,0 0,0l0 0 0 0 -250 0c0,0 0,250 0,250 0,0 0,0 0,0l0 0 500 0c0,0 0,0 0,0z" /></glyph>
   <glyph
   id="glyph158"
   horiz-adv-x="1000"
   unicode="情"><path
     id="path160"
     d="M1000 500l0 0c-250,0 -250,0 -250,0l0 0 0 0c0,0 0,0 0,0l0 0c0,0 0,0 0,0l0 250 0 0c0,0 0,0 0,0l0 0c0,0 0,0 0,0l0 0c0,0 0,0 0,0 0,0 0,0 0,0l-250 0 0 0c0,0 0,0 0,0l0 0 0 0 0 -250c0,250 0,250 0,250l0 -250 0 0 0 0c0,0 0,0 0,0l0 0 -250 0 250 0c0,0 0,0 500,0 0,0 0,0 0,0zm-750 0l0 0c0,0 0,0 -250,0l0 -250c0,0 250,0 250,0 0,0 0,250 0,250zm250 0c0,0 0,0 0,0l-250 250 0 0c0,0 0,0 0,0 0,0 0,0 0,0l0 0 0 0c0,0 0,0 0,0l0 -500c0,-250 0,-250 0,-250l0 0c0,0 0,0 0,0 0,0 0,0 0,0l0 500 250 0c0,0 0,0 0,0zm250 -250c0,250 0,250 0,250l0 0 0 0 -250 -250 0 250 0 0c0,-250 0,-250 0,-250l0 -250c0,0 0,0 0,0l0 0c0,0 0,0 0,0 0,0 0,0 0,0l0 250 250 0c0,0 0,0 0,0l0 0c0,0 -250,0 -250,0l0 0 250 0c0,0 0,0 0,0l0 0c0,0 -250,0 -250,0l0 0 250 0 0 -250c0,0 0,0 0,0l-250 0 0 0c250,0 250,0 250,0 0,0 0,0 0,0 0,0 0,0 0,0l0 250c0,0 0,0 0,0z" /></glyph>
   <glyph
   id="glyph162"
   horiz-adv-x="1000"
   unicode="家"><path
     id="path164"
     d="M500 750l0 0 0 0 0 0c0,0 0,0 0,0 0,0 0,0 0,0zm250 0c0,0 0,0 0,0l0 0 0 0 -500 0c0,0 0,0 0,0l0 0c0,0 0,-250 0,-250l0 0c0,0 0,0 0,0 0,0 0,0 0,0l500 250 0 -250 0 0c0,250 0,250 0,250zm250 -750l0 0c-250,0 -250,0 -250,250l-250 0c250,250 250,250 250,250 0,0 0,0 0,0l0 0 0 0c0,0 -250,0 -250,-250 0,0 0,250 0,250 0,0 0,0 0,0l250 0c0,0 0,0 0,0l0 0c0,0 -250,0 -500,0l0 0c0,0 0,0 250,0 0,0 -250,0 -250,-250l0 0c0,0 0,0 250,250 0,0 0,0 0,0 0,-250 -250,-250 -250,-250l0 0c0,0 250,0 250,0 0,0 0,0 0,0 0,0 -250,-250 -500,-250l0 0c250,0 250,250 500,250 0,0 0,-250 0,-250l-250 0 0 0c250,0 250,0 250,0 0,0 0,0 0,0 0,0 0,250 0,250 0,0 0,0 0,0l250 -250 250 0z" /></glyph>
   <glyph
   id="glyph166"
   horiz-adv-x="1000"
   unicode="系"><path
     id="path168"
     d="M750 250l-250 250 0 0c250,0 250,0 250,0l-500 -250 250 250c250,0 250,0 250,0 0,0 0,0 0,0l0 250 0 0c0,0 0,-250 -250,-250l-250 0 250 0c0,250 0,250 0,250 0,0 0,0 0,0l0 0c0,0 0,0 250,0 0,0 0,0 0,0 0,0 0,0 0,0l0 0 0 0c0,0 -250,0 -500,0l0 0c0,0 0,0 250,0 0,0 0,-250 -250,-250 0,0 0,0 0,0l0 0c0,0 0,0 0,0 0,0 250,0 250,0 0,0 0,0 -250,-250 0,0 0,0 0,0l0 0c0,0 0,0 0,0 0,0 0,0 250,0 0,0 0,0 0,0l0 -250c0,0 0,0 0,0l0 0 -250 0c250,0 250,0 250,0 0,0 0,0 0,0 0,0 0,0 0,0l0 250c0,0 0,0 0,0 0,0 0,0 0,0l0 0 250 0c0,0 0,0 0,0 0,0 0,0 0,0 0,0 0,0 0,0zm0 -250c0,0 0,0 0,0l-250 250 0 0c250,0 250,-250 250,-250 0,0 0,0 0,0zm-250 250l0 0 0 0c-250,0 -250,-250 -500,-250l250 0c0,0 0,0 0,250 250,0 250,0 250,0 0,0 0,0 0,0z" /></glyph>
  </font>
  <font
   vert-adv-y="90"
   vert-origin-y="90"
   vert-origin-x="45"
   horiz-origin-y="0"
   horiz-origin-x="0"
   font-weight="400"
   font-style="normal"
   font-variant="normal"
   horiz-adv-x="661"
   id="FontID0">
	<font-face
   id="font-face171"
   font-family="Adobe 黑体 Std R">
	</font-face>
   <missing-glyph
   id="missing-glyph173"><path
     id="path175"
     d="M0 0z" /></missing-glyph>
   <glyph
   id="glyph177"
   horiz-adv-x="562"
   unicode="3"><path
     id="path179"
     d="M333 408c85.9997,31.9997 134,99.1667 134,176.666 0,96.3332 -68.9998,181.333 -210,181.333 -77.9998,0 -151,-27 -189,-55.0001l29.0001 -83.1668c29.0001,20.1668 81,45.1667 134,45.1667 79.9999,0 118,-47.1662 118,-106.5 0,-83.3335 -84.9997,-122.5 -150,-122.5l-49.0002 0 0 -83.0001 51.0004 0c88.9999,0 171,-45 171,-142 0,-67.0002 -43.9999,-137 -151,-137 -61.9999,0 -122,24.9999 -149,42.9999l-30.0002 -88.9999c36,-23.9998 106,-47.0001 184,-47.0001 171,0 265,103 265,226 0,106 -72.9995,175 -158,191l0 2.00013z" /></glyph>
   <glyph
   id="glyph181"
   horiz-adv-x="562"
   unicode="0"><path
     id="path183"
     d="M278 -11.0001c155,0 247,139 247,394.5 0,228.5 -79.9999,382.5 -239,382.5 -156,0 -249,-144 -249,-390.5 0,-231.5 84.0002,-386.5 241,-386.5zm2.00013 93.0002c-79.9999,0 -126,110.167 -126,297.5 0,188.333 51.9999,294.5 128,294.5 87.9999,0 126,-115.167 126,-294.5 0,-156.334 -30.0002,-297.5 -128,-297.5z" /></glyph>
   <glyph
   id="glyph185"
   horiz-adv-x="562"
   unicode="8"><path
     id="path187"
     d="M177 394.5c-81,-38.0001 -138,-107.167 -138,-203.333 0,-106.167 84.9997,-202.167 239,-202.167 142,0 246,87.9999 246,219.167 0,92.1668 -59.0003,158.333 -141,194.333l0 3.00019c82.0001,42.1665 116,110.333 116,174.334 0,91.1662 -67.0002,186.166 -211,186.166 -126,0 -223,-79.9999 -223,-200.167 0,-65.1668 37.0001,-129.166 112,-168.333l0 -3.00019zm104 -323.5c-77.0003,0 -125,59.9998 -125,134.167 0,67.1669 39.9997,125.167 113,150.334 82.0001,-27.1667 138,-74.1668 138,-158.334 0,-69.1665 -46.0001,-126.167 -126,-126.167zm2.99962 614c75.0002,0 105,-57.0002 105,-116.167 0,-60.1665 -42.0004,-109.167 -94.0002,-130.167 -70.9999,24.0004 -120,65.0001 -120,134.167 0,57.1669 34.9999,112.167 108.999,112.167z" /></glyph>
   <glyph
   id="glyph189"
   horiz-adv-x="562"
   unicode="5"><path
     id="path191"
     d="M132 753l-46.9996 -364c24.9999,3.99968 52.9999,5.99981 90.9995,5.99981 134,0 200,-60.9999 200,-158 0,-97.9999 -75.9997,-156 -161,-156 -60.9999,0 -116,21.0002 -146,38.0001l-25.9999 -87.9999c34.9999,-22.0003 102,-42.0004 176,-42.0004 164,0 275,113 275,258 0,153.999 -118,234 -255,234 -20.9996,0 -34.9999,-2.00013 -49.9997,-3.00019l24.9999 179 264 0 0 95.9998 -346 0z" /></glyph>
   <glyph
   id="glyph193"
   horiz-adv-x="562"
   unicode="2"><path
     id="path195"
     d="M504 95.9998l-303 0 0 2.00013 61.9999 63c131,132.333 225,247.5 225,385.833 0,114.167 -68.0003,219.167 -223,219.167 -84.0002,0 -157,-32.0003 -203,-69.9999l34.9999 -83.0001c34.9999,28.0001 87.0004,58.9997 145,58.9997 95.0003,0 130,-64.0001 130,-137.166 0,-113.334 -88.0004,-217.5 -247,-380.833l-78.9999 -83.0001 0 -70.9999 458 0 0 95.9998z" /></glyph>
   <glyph
   id="glyph197"
   horiz-adv-x="562"
   unicode="7"><path
     id="path199"
     d="M58.0002 657l336 0 0 -2.00013 -299 -655 119 0 299 680 0 73.0001 -455 0 0 -95.9998z" /></glyph>
   <glyph
   id="glyph201"
   horiz-adv-x="562"
   unicode="4"><path
     id="path203"
     d="M446 199l94.0002 0 0 87.9999 -94.0002 0 0 466 -129 0 -295 -479 0 -75.0002 315 0 0 -199 108.999 0 0 199zm-315 90l144 230c21.0002,40.0002 40.0002,77.0003 63,125l4.00025 0c-3.00019,-42.9999 -4.99975,-87.9999 -4.99975,-131l0 -226 -206 0 0 2.00013z" /></glyph>
   <glyph
   id="glyph205"
   horiz-adv-x="562"
   unicode="1"><path
     id="path207"
     d="M367 0l0 753 -97.9999 0 -170 -91.0001 25.9999 -84.9997 127 69.9999 2.00013 0 0 -647 113 0z" /></glyph>
   <glyph
   id="glyph209"
   horiz-adv-x="245"
   unicode="."><path
     id="path211"
     d="M132 -11.0001c46.0001,0 75.0002,33.0004 75.0002,78.9999 0,47.0001 -30.0002,80.0005 -74.0001,80.0005 -42.9999,0 -74.9996,-34.0004 -74.9996,-80.0005 0,-43.9999 27.9995,-78.9999 73.9996,-78.9999z" /></glyph>
   <glyph
   id="glyph213"
   horiz-adv-x="562"
   unicode="9"><path
     id="path215"
     d="M408 341c-15.0004,-93.9997 -70.0004,-232 -233,-254 -31.0003,-3.99968 -52.0004,-5.99981 -74.0001,-3.99968l0 -93.0002c20.9996,-1.00006 50.9998,0 82.0001,5.00031 223,23.9998 342,213 342,454.333 0,185.5 -86.0003,316.667 -240,316.667 -149,0 -244,-125 -244,-265.5 0,-135.5 86.0003,-229.5 208,-229.5 67.0002,0 120,27 156,69.9999l3.00019 0zm-129 340c85.0002,0 128,-88.1665 128,-212.666 0,-21.0002 -3.00019,-34.1665 -7.99994,-44.1666 -22.0003,-39.1669 -65.0001,-71.1666 -120,-71.1666 -76.0002,0 -122,65.1668 -122,154.5 0,101.333 49.9997,173.5 122,173.5z" /></glyph>
   <glyph
   id="glyph217"
   horiz-adv-x="562"
   unicode="6"><path
     id="path219"
     d="M153 415c15.9999,111 93.0002,257 307,257l-1.00006 92.0001c-106,0 -224,-34.9999 -302,-117 -72,-75.9997 -121,-193 -121,-340 0,-187 94.0002,-318 254,-318 149,0 238,125 238,265 0,148 -87.9999,239 -209,239 -73.0001,0 -129,-33.9999 -164,-77.9998l-2.00013 0zm137 -339c-87.9999,0 -137,84.9997 -139,203 0,67.9997 65.0001,131 132,131 78.9999,0 129,-64.9996 129,-162.999 0,-99 -46.0001,-171 -122,-171z" /></glyph>
  </font>
</defs>
</svg>
