<svg xmlns="http://www.w3.org/2000/svg">
<defs>
<font
       horiz-adv-x="526"
       id="b68875cb-14a9-472e-8177-0247605124d7"
       horiz-origin-x="0"
       horiz-origin-y="0"
       vert-origin-x="512"
       vert-origin-y="768"
       vert-adv-y="1024"><font-face
         font-family=""
         panose-1="2 11 6 4 2 2 2 2 2 4"
         ascent="973"
         descent="-214"
         units-per-em="1000"
         alphabetic="0"
         id="font-face122021" /><missing-glyph
         horiz-adv-x="512"
         d="M222 117V184H278V117H222ZM225 234L223 251Q223 306 236 332T282 391Q314 422 323 438T332 474Q332 510 310 534T256 559Q225 559 203 537T174 464L124 472Q131 543 168 576T259 609Q312 609 347 573T383 478Q383 446 371 420T320 358Q283 325 277 306T271 234H225ZM462 50V667H50V50H462ZM512 718V0H0V718H512Z"
         id="missing-glyph122023" /><glyph
         unicode=" "
         id="glyph122025" /><glyph
         unicode=" "
         horiz-adv-x="0"
         id="glyph122027" /><glyph
         unicode=" "
         horiz-adv-x="278"
         id="glyph122029" /><glyph
         unicode="!"
         horiz-adv-x="259"
         d="M74 111H185V0H74V111ZM177 494L152 183H107L82 494V714H177V494Z"
         id="glyph122031" /><glyph
         unicode="&quot;"
         horiz-adv-x="426"
         d="M249 714H317V456H249V714ZM109 714H177V456H109V714Z"
         id="glyph122033" /><glyph
         unicode="#"
         horiz-adv-x="556"
         d="M231 424L210 274H334L355 424H231ZM131 206H34V274H141L162 424H60V492H171L200 697H269L240 492H364L393 697H462L433 492H522V424H424L403 274H494V206H393L364 0H295L324 206H200L171 0H102L131 206Z"
         id="glyph122035" /><glyph
         unicode="$"
         horiz-adv-x="556"
         d="M110 218Q112 151 151 112T251 63V328Q198 341 160 356T96 393T58 446T46 521Q46 566 62 603T105 668T170 712T251 731V797H306V730Q387 720 435 670T503 532H418Q398 631 306 648V402L366 386Q385 381 412 369T465 334T507 279T525 200Q525 152 509 114T463 47T394 3T306 -17V-99H251V-17Q152 -7 93 53T25 218H110ZM306 63Q334 65 357 73T398 97T425 135T435 191Q435 219 425 239T398 273T357 296T306 314V63ZM251 651Q203 646 170 617T136 530Q136 503 144 485T168 455T205 433T251 417V651Z"
         id="glyph122037" /><glyph
         unicode="%"
         horiz-adv-x="1000"
         d="M167 508Q167 486 169 461T181 414T206 378T251 363Q279 363 296 377T323 412T336 460T339 509Q339 531 337 556T325 603T299 639T254 654Q226 654 209 640T183 604T170 556T167 508ZM92 506Q92 546 100 583T127 648T177 692T254 709Q300 709 331 693T380 650T406 587T414 509Q414 470 406 434T378 370T328 325T254 308Q209 308 178 323T128 366T101 429T92 506ZM661 188Q661 166 663 141T675 94T700 58T745 43Q773 43 790 57T817 92T830 140T833 189Q833 211 831 236T819 283T793 319T748 334Q720 334 703 320T677 284T664 236T661 188ZM586 186Q586 226 594 263T621 328T671 372T748 389Q794 389 825 373T874 330T900 267T908 189Q908 150 900 114T872 50T822 5T748 -12Q703 -12 672 3T622 46T595 109T586 186ZM726 722H811L274 -22H188L726 722Z"
         id="glyph122039" /><glyph
         unicode="&amp;"
         horiz-adv-x="630"
         d="M275 439Q290 449 307 461T338 488T361 521T370 563Q370 594 348 616T288 639Q258 639 232 621T206 563Q206 547 212 531T229 500T251 469T275 439ZM458 89Q442 64 420 45T371 14T315 -5T256 -12Q184 -12 140 10T72 64T41 128T33 183Q33 225 46 257T82 314T135 360T200 399Q185 420 171 439T146 477T128 518T121 567Q121 596 131 622T162 669T213 702T282 714Q315 714 346 705T402 678T440 632T455 568Q455 536 444 509T414 458T371 417T321 383L450 226Q470 280 473 337H554Q551 305 548 283T539 241T525 204T506 161L645 0H534L458 89ZM247 345Q222 331 200 316T160 282T133 240T123 184Q123 157 134 135T165 97T208 72T259 63Q308 63 346 86T411 148L247 345Z"
         id="glyph122041" /><glyph
         unicode="'"
         horiz-adv-x="278"
         d="M105 714H173V456H105V714Z"
         id="glyph122043" /><glyph
         unicode="("
         horiz-adv-x="259"
         d="M204 -198Q132 -86 90 26T47 270Q47 388 87 508T204 731H269Q197 618 167 505T137 270Q137 144 167 31T269 -198H204Z"
         id="glyph122045" /><glyph
         unicode=")"
         horiz-adv-x="259"
         d="M-10 -198Q62 -85 92 28T122 263Q122 389 92 502T-10 731H55Q91 675 120 620T169 507T201 389T212 263Q212 145 172 25T55 -198H-10Z"
         id="glyph122047" /><glyph
         unicode="*"
         horiz-adv-x="352"
         d="M201 601L308 641L328 593L219 555L285 464L244 433L175 529L110 433L65 464L130 555L24 593L42 641L148 601V714H201V601Z"
         id="glyph122049" /><glyph
         unicode="+"
         horiz-adv-x="600"
         d="M334 287H552V219H334V0H266V219H48V287H266V506H334V287Z"
         id="glyph122051" /><glyph
         unicode=","
         horiz-adv-x="278"
         d="M83 111H194V10Q194 -47 168 -88T84 -147V-97Q101 -91 112 -80T130 -55T140 -27T142 0H83V111Z"
         id="glyph122053" /><glyph
         unicode="-"
         horiz-adv-x="389"
         d="M50 318H339V238H50V318Z"
         id="glyph122055" /><glyph
         unicode="."
         horiz-adv-x="278"
         d="M83 111H194V0H83V111Z"
         id="glyph122057" /><glyph
         unicode="/"
         horiz-adv-x="333"
         d="M278 731H351L55 -17H-18L278 731Z"
         id="glyph122059" /><glyph
         unicode="0"
         horiz-adv-x="556"
         d="M132 349Q132 309 134 260T150 167T194 93T278 63Q332 63 362 93T405 166T421 259T424 349Q424 375 424 406T419 469T406 531T381 583T339 620T278 634Q242 634 217 620T176 584T151 531T138 470T133 407T132 349ZM42 348Q42 407 47 470T76 587T147 674T278 709Q361 709 408 675T479 587T508 471T514 348Q514 309 512 267T502 185T479 110T438 47T373 4T278 -12Q223 -12 184 4T118 47T77 109T54 185T44 267T42 348Z"
         id="glyph122061" /><glyph
         unicode="1"
         horiz-adv-x="556"
         d="M356 0H271V508H87V576Q123 576 157 581T218 602T265 643T291 709H356V0Z"
         id="glyph122063" /><glyph
         unicode="2"
         horiz-adv-x="556"
         d="M44 458Q41 512 55 558T99 637T172 690T272 709Q318 709 358 696T429 657T476 593T494 505Q494 458 480 422T441 358T386 306T322 262Q289 242 256 223T196 181T149 134T123 75H487V0H24Q29 63 47 107T91 185T151 242T223 290Q268 318 302 341T358 389T392 441T404 506Q404 535 393 558T364 599T320 625T267 634Q230 634 204 619T160 578T136 522T129 458H44Z"
         id="glyph122065" /><glyph
         unicode="3"
         horiz-adv-x="556"
         d="M218 405Q228 404 237 404Q246 404 255 404Q282 404 306 411T349 433T379 469T390 520Q390 576 354 605T264 634Q229 634 204 622T163 588T138 539T130 480H45Q47 531 61 573T103 645T170 692T264 709Q310 709 349 698T418 663T463 604T480 519Q480 472 452 435T382 378V376Q447 362 478 315T510 204Q510 151 491 111T438 43T361 2T266 -12Q212 -12 168 3T93 48T46 121T30 219H115Q117 150 155 107T266 63Q297 63 325 72T374 99T407 142T420 200Q420 233 408 258T376 301T328 327T269 336Q242 336 218 333V405Z"
         id="glyph122067" /><glyph
         unicode="4"
         horiz-adv-x="556"
         d="M339 241V588H337L101 241H339ZM419 241H515V166H419V0H339V166H28V248L351 709H419V241Z"
         id="glyph122069" /><glyph
         unicode="5"
         horiz-adv-x="556"
         d="M470 622H184L146 418L148 416Q171 442 207 454T280 467Q327 467 369 452T442 407T491 331T509 224Q509 179 494 137T447 61T370 8T261 -12Q215 -12 175 1T103 41T54 105T35 191H120Q122 164 133 141T164 100T210 73T269 63Q299 63 326 73T374 105T407 157T419 231Q419 266 408 295T375 346T325 380T259 392Q218 392 185 374T127 325L54 329L120 697H470V622Z"
         id="glyph122071" /><glyph
         unicode="6"
         horiz-adv-x="556"
         d="M414 528Q408 576 377 605T295 634Q241 634 208 608T156 541T131 453T123 365L125 363Q155 412 199 434T302 456Q353 456 393 439T461 390T504 317T519 226Q519 187 507 145T468 68T395 11T282 -12Q203 -12 155 20T81 103T47 213T38 329Q38 402 50 470T93 592T173 677T299 709Q387 709 439 662T499 528H414ZM286 381Q250 381 223 369T177 335T149 284T139 221Q139 188 149 159T177 109T223 76T286 63Q320 63 347 75T392 110T419 160T429 220Q429 253 421 282T394 333T349 368T286 381Z"
         id="glyph122073" /><glyph
         unicode="7"
         horiz-adv-x="556"
         d="M509 624Q455 571 408 498T325 342T265 171T237 0H142Q148 90 171 175T232 339T317 488T422 617H50V697H509V624Z"
         id="glyph122075" /><glyph
         unicode="8"
         horiz-adv-x="556"
         d="M155 525Q155 496 165 475T192 439T232 418T281 411Q332 411 365 441T398 525Q398 579 365 606T279 634Q253 634 231 627T192 606T165 572T155 525ZM65 528Q65 572 82 605T128 662T194 697T273 709Q331 709 372 694T438 653T476 595T488 528Q488 480 461 441T390 381Q454 361 485 316T516 204Q516 153 498 113T448 45T373 3T281 -12Q230 -12 186 1T110 42T59 109T40 204Q40 267 72 313T164 381Q119 399 92 439T65 528ZM130 200Q130 136 172 100T281 63Q313 63 339 73T385 102T415 146T426 201Q426 230 415 254T383 297T337 325T280 336Q248 336 221 327T174 299T142 256T130 200Z"
         id="glyph122077" /><glyph
         unicode="9"
         horiz-adv-x="556"
         d="M134 171Q139 119 176 91T264 63Q342 63 381 131T424 337L422 339Q398 294 354 268T258 241Q204 241 162 258T92 307T49 381T34 478Q34 529 51 571T99 644T173 692T267 709Q316 709 360 694T438 640T490 536T510 370Q510 186 452 87T264 -12Q219 -12 182 -1T116 34T71 91T49 171H134ZM409 472Q409 505 400 534T372 585T326 621T263 634Q225 634 199 620T156 583T132 529T124 466Q124 437 134 410T163 362T207 329T264 316Q297 316 324 328T370 362T399 412T409 472Z"
         id="glyph122079" /><glyph
         unicode=":"
         horiz-adv-x="278"
         d="M194 406H83V517H194V406ZM83 111H194V0H83V111Z"
         id="glyph122081" /><glyph
         unicode=";"
         horiz-adv-x="278"
         d="M194 406H83V517H194V406ZM83 111H194V10Q195 -47 169 -88T84 -147V-97Q101 -91 112 -80T130 -55T140 -27T142 0H83V111Z"
         id="glyph122083" /><glyph
         unicode="&lt;"
         horiz-adv-x="600"
         d="M554 446L129 253L554 60V-8L46 222V284L554 514V446Z"
         id="glyph122085" /><glyph
         unicode="="
         horiz-adv-x="600"
         d="M48 186H552V118H48V186ZM552 320H48V388H552V320Z"
         id="glyph122087" /><glyph
         unicode="&gt;"
         horiz-adv-x="600"
         d="M46 60L471 253L46 446V514L554 284V222L46 -8V60Z"
         id="glyph122089" /><glyph
         unicode="?"
         horiz-adv-x="556"
         d="M218 111H329V0H218V111ZM55 491Q54 542 69 586T114 662T184 713T279 731Q325 731 364 718T431 679T474 616T490 531Q490 500 483 476T463 431T436 394T404 361Q388 346 373 331T345 298T325 259T317 213V174H232V221Q232 252 240 276T262 320T291 356T322 388T351 418T377 450T395 489T400 539Q396 594 365 625T279 656Q243 656 217 643T174 608T148 556T140 491H55Z"
         id="glyph122091" /><glyph
         unicode="@"
         horiz-adv-x="800"
         d="M534 270Q530 257 527 244T523 219Q523 205 528 197T547 188Q570 188 594 209T639 263T672 337T685 418Q685 477 663 525T602 606T515 658T414 676Q350 676 295 651T198 581T134 479T110 355Q110 288 134 230T201 130T300 63T419 38Q455 38 490 46T557 71T618 109T667 159H730Q706 118 672 85T598 30T511 -5T417 -17Q338 -17 270 12T151 92T71 212T42 360Q42 437 71 504T151 622T269 702T413 731Q482 731 544 708T652 645T726 547T753 423Q753 358 730 305T671 213T595 154T519 133Q493 133 475 149T455 198H452Q429 172 397 152T328 131Q296 131 270 143T225 177T196 227T185 289Q185 341 202 392T249 483T323 548T420 573Q455 573 485 555T532 491L555 554H618L534 270ZM420 505Q385 505 356 485T305 433T272 366T260 296Q260 254 284 227T346 199Q379 199 407 220T456 274T489 344T501 412Q501 430 494 447T476 476T451 497T420 505Z"
         id="glyph122093" /><glyph
         unicode="A"
         horiz-adv-x="648"
         d="M201 295H443L324 628H322L201 295ZM272 714H377L656 0H551L473 215H171L91 0H-7L272 714Z"
         id="glyph122095" /><glyph
         unicode="B"
         horiz-adv-x="685"
         d="M173 407H363Q444 407 479 435T515 521Q515 558 503 580T470 615T422 630T363 634H173V407ZM78 714H337Q361 714 387 714T438 711T487 703T526 688Q561 667 585 630T610 539Q610 482 582 441T504 379V377Q570 363 605 317T640 205Q640 166 626 129T585 64T517 18T423 0H78V714ZM173 80H411Q473 80 509 114T545 208Q545 243 532 266T498 302T448 321T390 327H173V80Z"
         id="glyph122097" /><glyph
         unicode="C"
         horiz-adv-x="722"
         d="M580 499Q572 537 554 565T510 613T450 641T380 651Q316 651 271 627T196 563T152 470T138 362Q138 301 152 247T195 152T271 87T381 63Q428 63 464 78T527 121T569 187T587 269H682Q668 135 589 59T373 -17Q290 -17 228 12T125 91T64 209T43 355Q43 433 65 501T129 621T235 701T381 731Q437 731 487 716T576 672T641 600T675 499H580Z"
         id="glyph122099" /><glyph
         unicode="D"
         horiz-adv-x="704"
         d="M173 80H331Q347 80 371 82T422 94T475 122T523 171T557 248T571 361Q571 425 559 475T518 561T444 615T333 634H173V80ZM78 714H323Q488 714 577 630T666 374Q666 284 646 215T584 98T477 25T323 0H78V714Z"
         id="glyph122101" /><glyph
         unicode="E"
         horiz-adv-x="611"
         d="M78 714H571V634H173V407H544V327H173V80H574V0H78V714Z"
         id="glyph122103" /><glyph
         unicode="F"
         horiz-adv-x="574"
         d="M78 714H547V634H173V407H501V327H173V0H78V714Z"
         id="glyph122105" /><glyph
         unicode="G"
         horiz-adv-x="759"
         d="M612 89Q591 61 565 41T508 8T446 -11T383 -17Q303 -17 240 13T133 93T66 208T43 343Q43 421 64 491T128 615T234 699T383 731Q441 731 492 718T584 675T652 602T690 494H595Q588 534 569 564T522 613T459 641T383 651Q318 651 272 625T196 557T152 460T138 348Q138 292 154 241T201 150T277 87T383 63Q438 63 481 81T555 130T599 204T612 296H384V376H697V0H637L612 89Z"
         id="glyph122107" /><glyph
         unicode="H"
         horiz-adv-x="722"
         d="M78 714H173V407H549V714H644V0H549V327H173V0H78V714Z"
         id="glyph122109" /><glyph
         unicode="I"
         horiz-adv-x="259"
         d="M82 714H177V0H82V714Z"
         id="glyph122111" /><glyph
         unicode="J"
         horiz-adv-x="519"
         d="M441 178Q441 142 431 107T396 45T331 0T230 -17Q130 -17 76 36T22 191V235H117V205Q117 174 122 148T139 103T174 74T232 63Q297 63 321 98T346 192V714H441V178Z"
         id="glyph122113" /><glyph
         unicode="K"
         horiz-adv-x="667"
         d="M78 714H173V358L535 714H658L357 426L670 0H550L292 361L173 250V0H78V714Z"
         id="glyph122115" /><glyph
         unicode="L"
         horiz-adv-x="556"
         d="M78 714H173V80H551V0H78V714Z"
         id="glyph122117" /><glyph
         unicode="M"
         horiz-adv-x="871"
         d="M80 714H210L435 114L661 714H791V0H701V594H699L476 0H395L172 594H170V0H80V714Z"
         id="glyph122119" /><glyph
         unicode="N"
         horiz-adv-x="722"
         d="M77 714H178L554 135H556V714H646V0H542L169 573H167V0H77V714Z"
         id="glyph122121" /><glyph
         unicode="O"
         horiz-adv-x="760"
         d="M133 357Q133 303 147 251T191 156T268 89T380 63Q445 63 492 88T569 156T613 250T627 357Q627 411 613 463T569 558T492 625T380 651Q315 651 268 626T191 558T147 464T133 357ZM38 357Q38 430 59 497T124 617T231 700T380 731Q465 731 529 700T636 617T700 498T722 357Q722 284 701 217T636 97T529 14T380 -17Q295 -17 231 14T124 97T60 216T38 357Z"
         id="glyph122123" /><glyph
         unicode="P"
         horiz-adv-x="648"
         d="M173 372H359Q440 371 477 405T515 503Q515 567 478 600T359 634H173V372ZM78 714H391Q498 714 554 659T610 503Q610 403 554 347T391 292H173V0H78V714Z"
         id="glyph122125" /><glyph
         unicode="Q"
         horiz-adv-x="760"
         d="M450 204L545 128Q587 170 607 231T627 357Q627 411 613 463T569 558T492 625T380 651Q315 651 268 626T191 558T147 464T133 357Q133 303 147 251T191 156T268 89T380 63Q433 63 479 83L400 146L450 204ZM660 -62L551 26Q479 -17 380 -17Q295 -17 231 14T124 97T60 216T38 357Q38 430 59 497T124 617T231 700T380 731Q465 731 529 700T636 617T700 498T722 357Q722 275 695 201T614 73L708 -2L660 -62Z"
         id="glyph122127" /><glyph
         unicode="R"
         horiz-adv-x="685"
         d="M78 714H414Q515 714 573 664T631 527Q631 462 602 413T507 346V344Q538 338 557 324T589 291T606 247T614 197Q616 171 617 144T622 91T633 42T656 0H550Q540 11 537 30T532 72T530 123T524 176Q520 202 514 225T495 266T461 294T405 305H173V0H78V714ZM371 385Q404 385 434 390T486 409T522 448T536 512Q536 565 506 599T409 634H173V385H371Z"
         id="glyph122129" /><glyph
         unicode="S"
         horiz-adv-x="648"
         d="M491 505Q483 582 436 616T314 651Q284 651 255 645T204 625T168 588T154 529Q154 496 173 476T225 442T299 421T383 402T467 379T540 342T591 284T611 196Q611 139 586 99T520 33T431 -5T332 -17Q272 -17 219 -2T125 44T61 122T37 235H127Q127 190 144 158T190 104T256 73T335 63Q367 63 399 69T458 89T500 129T516 193Q516 230 497 253T445 290T372 314T288 333T204 354T131 388T79 441T59 522Q59 576 81 615T139 680T222 718T318 731Q373 731 420 718T502 677T558 607T581 505H491Z"
         id="glyph122131" /><glyph
         unicode="T"
         horiz-adv-x="574"
         d="M240 634H2V714H573V634H335V0H240V634Z"
         id="glyph122133" /><glyph
         unicode="U"
         horiz-adv-x="722"
         d="M648 258Q648 122 575 53T367 -17Q298 -17 244 -1T152 49T94 135T74 258V714H169V258Q169 163 220 113T367 63Q458 63 505 113T553 258V714H648V258Z"
         id="glyph122135" /><glyph
         unicode="V"
         horiz-adv-x="611"
         d="M359 0H251L-1 714H102L306 95H308L514 714H613L359 0Z"
         id="glyph122137" /><glyph
         unicode="W"
         horiz-adv-x="926"
         d="M723 0H624L461 600H459L294 0H195L12 714H109L249 120H251L411 714H514L672 120H674L819 714H914L723 0Z"
         id="glyph122139" /><glyph
         unicode="X"
         horiz-adv-x="611"
         d="M248 367L13 714H127L305 435L491 714H597L361 367L612 0H496L304 295L106 0H-1L248 367Z"
         id="glyph122141" /><glyph
         unicode="Y"
         horiz-adv-x="648"
         d="M373 292V0H278V292L2 714H115L329 374L538 714H646L373 292Z"
         id="glyph122143" /><glyph
         unicode="Z"
         horiz-adv-x="611"
         d="M22 80L466 634H56V714H578V634L135 80H590V0H22V80Z"
         id="glyph122145" /><glyph
         unicode="["
         horiz-adv-x="259"
         d="M259 663H152V-130H259V-198H72V731H259V663Z"
         id="glyph122147" /><glyph
         unicode="\"
         horiz-adv-x="333"
         d="M351 -17H278L-18 731H55L351 -17Z"
         id="glyph122149" /><glyph
         unicode="]"
         horiz-adv-x="259"
         d="M0 -130H107V663H0V731H187V-198H0V-130Z"
         id="glyph122151" /><glyph
         unicode="^"
         horiz-adv-x="600"
         d="M268 697H332L550 264H480L299 624L121 264H50L268 697Z"
         id="glyph122153" /><glyph
         unicode="_"
         horiz-adv-x="500"
         d="M0 -75H500V-125H0V-75Z"
         id="glyph122155" /><glyph
         unicode="`"
         horiz-adv-x="222"
         d="M-23 732H86L172 589H108L-23 732Z"
         id="glyph122157" /><glyph
         unicode="a"
         horiz-adv-x="537"
         d="M522 2Q499 -12 461 -12Q428 -12 409 7T389 68Q354 26 308 7T207 -12Q172 -12 141 -4T86 21T50 66T36 133Q36 177 51 205T90 250T146 276T211 292Q246 299 277 302T333 312T371 331T385 368Q385 396 375 413T348 439T311 451T270 454Q216 454 180 434T141 356H56Q58 404 76 437T124 490T193 520T275 529Q310 529 344 524T407 504T452 460T469 387V121Q469 91 472 77T496 63Q508 63 522 68V2ZM384 267Q372 258 354 253T316 245T274 239T230 232T190 222T157 206T135 179T126 139Q126 118 134 104T156 80T188 67T226 63Q268 63 298 74T347 103T375 141T384 180V267Z"
         id="glyph122159" /><glyph
         unicode="b"
         horiz-adv-x="593"
         d="M67 714H152V447H154Q175 490 220 509T319 529Q379 529 423 507T497 448T542 361T557 257Q557 202 543 153T499 68T425 10T321 -12Q301 -12 278 -8T232 5T189 30T154 69H152V0H67V714ZM467 263Q467 299 458 333T429 395T379 438T307 454Q264 454 234 437T185 393T158 330T149 259Q149 221 158 186T186 123T237 80T312 63Q355 63 385 80T433 125T459 189T467 263Z"
         id="glyph122161" /><glyph
         unicode="c"
         horiz-adv-x="537"
         d="M415 351Q405 400 373 427T287 454Q241 454 210 437T161 392T134 328T126 252Q126 216 134 182T161 122T207 79T277 63Q339 63 375 96T419 189H506Q492 94 434 41T278 -12Q219 -12 174 7T98 62T52 145T36 252Q36 310 51 360T96 448T172 507T280 529Q324 529 362 519T431 486T479 431T503 351H415Z"
         id="glyph122163" /><glyph
         unicode="d"
         horiz-adv-x="593"
         d="M126 254Q126 218 135 184T164 122T214 79T286 63Q329 63 359 80T408 124T435 187T444 258Q444 296 435 331T407 394T356 437T281 454Q237 454 208 437T160 392T134 328T126 254ZM526 0H441V70H439Q418 27 373 8T274 -12Q214 -12 170 10T96 69T51 156T36 260Q36 315 50 363T94 449T168 507T272 529Q292 529 315 525T361 512T404 487T439 448H441V714H526V0Z"
         id="glyph122165" /><glyph
         unicode="e"
         horiz-adv-x="537"
         d="M423 308Q421 338 410 365T379 411T332 442T274 454Q241 454 215 443T169 411T139 365T126 308H423ZM505 164Q488 78 430 33T284 -12Q222 -12 177 8T100 65T54 151T36 260Q36 318 54 367T104 453T181 509T279 529Q348 529 393 501T466 428T504 332T513 233H126Q125 199 134 169T163 115T214 77T287 63Q340 63 375 88T421 164H505Z"
         id="glyph122167" /><glyph
         unicode="f"
         horiz-adv-x="296"
         d="M99 442H12V517H99V594Q99 657 135 689T242 722Q254 722 269 720T297 714V640Q286 644 273 645T249 647Q218 647 201 635T184 589V517H284V442H184V0H99V442Z"
         id="glyph122169" /><glyph
         unicode="g"
         horiz-adv-x="574"
         d="M510 44Q510 -83 452 -146T270 -210Q234 -210 197 -202T129 -176T78 -129T56 -58H141Q142 -81 155 -97T188 -123T231 -137T275 -142Q317 -142 346 -128T394 -88T421 -26T430 54V88H428Q417 64 400 47T362 18T316 0T267 -6Q209 -6 166 15T94 72T51 155T36 256Q36 302 48 350T88 438T162 503T275 529Q324 529 365 508T429 443H430V517H510V44ZM272 69Q314 69 343 86T391 132T417 197T426 269Q426 303 418 336T393 395T347 438T279 454Q238 454 209 439T162 397T135 337T126 266Q126 231 133 196T157 133T202 87T272 69Z"
         id="glyph122171" /><glyph
         unicode="h"
         horiz-adv-x="556"
         d="M64 714H149V441H151Q161 464 179 481T220 508T266 524T314 529Q365 529 399 515T454 476T483 417T492 340V0H407V350Q407 398 379 426T302 454Q263 454 235 442T187 408T159 357T149 292V0H64V714Z"
         id="glyph122173" /><glyph
         unicode="i"
         horiz-adv-x="222"
         d="M154 610H69V714H154V610ZM69 517H154V0H69V517Z"
         id="glyph122175" /><glyph
         unicode="j"
         horiz-adv-x="222"
         d="M154 610H69V714H154V610ZM154 -66Q154 -135 121 -166T30 -198Q19 -198 8 -197T-14 -194V-121Q-5 -123 3 -123Q12 -123 21 -123Q49 -123 59 -108T69 -52V517H154V-66Z"
         id="glyph122177" /><glyph
         unicode="k"
         horiz-adv-x="519"
         d="M69 714H154V291L390 517H504L299 329L519 0H411L234 270L154 196V0H69V714Z"
         id="glyph122179" /><glyph
         unicode="l"
         horiz-adv-x="222"
         d="M69 714H154V0H69V714Z"
         id="glyph122181" /><glyph
         unicode="m"
         horiz-adv-x="853"
         d="M64 517H144V441H146Q204 529 313 529Q361 529 400 509T455 441Q481 483 524 506T617 529Q656 529 687 521T741 494T776 448T789 379V0H704V339Q704 363 700 384T685 420T655 445T604 454Q542 454 506 418T469 322V0H384V339Q384 364 380 385T364 421T334 445T287 454Q249 454 223 439T181 403T157 360T149 322V0H64V517Z"
         id="glyph122183" /><glyph
         unicode="n"
         horiz-adv-x="556"
         d="M64 517H144V435H146Q173 483 215 506T314 529Q365 529 399 515T454 476T483 417T492 340V0H407V350Q407 398 379 426T302 454Q263 454 235 442T187 408T159 357T149 292V0H64V517Z"
         id="glyph122185" /><glyph
         unicode="o"
         horiz-adv-x="574"
         d="M126 258Q126 211 138 175T173 114T224 76T287 63Q320 63 349 76T401 113T435 174T448 258Q448 305 436 341T401 403T350 441T287 454Q254 454 225 441T173 403T139 342T126 258ZM36 258Q36 315 52 364T100 450T178 508T287 529Q348 529 395 508T474 451T522 365T538 258Q538 201 522 152T474 67T395 9T287 -12Q225 -12 179 9T100 66T52 152T36 258Z"
         id="glyph122187" /><glyph
         unicode="p"
         horiz-adv-x="593"
         d="M67 517H152V447H154Q175 490 220 509T319 529Q379 529 423 507T497 448T542 361T557 257Q557 202 543 153T499 68T425 10T321 -12Q301 -12 278 -8T232 5T189 30T154 69H152V-198H67V517ZM467 263Q467 299 458 333T429 395T379 438T307 454Q264 454 234 437T185 393T158 330T149 259Q149 221 158 186T186 123T237 80T312 63Q355 63 385 80T433 125T459 189T467 263Z"
         id="glyph122189" /><glyph
         unicode="q"
         horiz-adv-x="593"
         d="M126 254Q126 218 135 184T164 122T214 79T286 63Q329 63 359 80T408 124T435 187T444 258Q444 296 435 331T407 394T356 437T281 454Q237 454 208 437T160 392T134 328T126 254ZM526 -198H441V70H439Q418 27 373 8T274 -12Q214 -12 170 10T96 69T51 156T36 260Q36 315 50 363T94 449T168 507T272 529Q292 529 315 525T361 512T404 487T439 448H441V517H526V-198Z"
         id="glyph122191" /><glyph
         unicode="r"
         horiz-adv-x="333"
         d="M61 517H141V408H143Q174 471 219 501T333 529V439Q282 439 246 425T188 384T156 318T146 230V0H61V517Z"
         id="glyph122193" /><glyph
         unicode="s"
         horiz-adv-x="500"
         d="M116 163Q117 134 129 115T160 85T204 68T255 63Q275 63 297 66T337 77T368 100T380 140Q380 165 366 180T328 206T274 222T211 236T149 253T95 279T57 320T42 382Q42 421 59 449T104 494T166 520T235 529Q278 529 315 522T381 496T427 446T447 367H362Q360 392 349 408T321 435T284 449T242 454Q223 454 204 451T168 441T142 420T132 388Q132 365 147 351T187 328T241 312T301 298Q333 291 363 281T417 255T455 213T470 151Q470 105 451 74T400 23T329 -4T250 -12Q206 -12 168 -3T99 27T51 81T31 163H116Z"
         id="glyph122195" /><glyph
         unicode="t"
         horiz-adv-x="315"
         d="M182 517H285V442H182V121Q182 106 184 97T194 83T213 77T246 75H285V0H220Q187 0 164 4T126 21T104 55T97 113V442H9V517H97V672H182V517Z"
         id="glyph122197" /><glyph
         unicode="u"
         horiz-adv-x="556"
         d="M492 0H412V82H410Q383 34 341 11T242 -12Q191 -12 157 2T102 41T73 100T64 177V517H149V167Q149 119 177 91T254 63Q293 63 321 75T369 109T397 160T407 225V517H492V0Z"
         id="glyph122199" /><glyph
         unicode="v"
         horiz-adv-x="500"
         d="M297 0H206L14 517H109L254 86H256L397 517H486L297 0Z"
         id="glyph122201" /><glyph
         unicode="w"
         horiz-adv-x="758"
         d="M576 0H486L381 411H379L275 0H183L17 517H111L228 94H230L334 517H427L535 94H537L653 517H741L576 0Z"
         id="glyph122203" /><glyph
         unicode="x"
         horiz-adv-x="518"
         d="M203 272L23 517H132L256 336L385 517H487L309 279L509 0H400L256 214L112 0H9L203 272Z"
         id="glyph122205" /><glyph
         unicode="y"
         horiz-adv-x="500"
         d="M267 -69Q252 -107 238 -133T206 -175T167 -199T117 -207Q102 -207 87 -205T58 -198V-120Q70 -124 82 -128T108 -132Q134 -132 150 -120T178 -85L213 3L8 517H104L255 94H257L402 517H492L267 -69Z"
         id="glyph122207" /><glyph
         unicode="z"
         horiz-adv-x="480"
         d="M22 65L334 442H42V517H444V459L128 75H458V0H22V65Z"
         id="glyph122209" /><glyph
         unicode="{"
         horiz-adv-x="333"
         d="M309 671H259Q244 671 235 664T221 644T213 617T211 585V402Q211 367 201 343T176 302T148 278T124 268V265Q133 264 147 257T176 235T200 195T211 131V-52Q211 -67 213 -82T220 -110T235 -130T259 -138H309V-198H239Q220 -198 201 -190T167 -165T141 -124T131 -67V115Q131 170 106 201T48 232V300Q64 300 79 308T105 332T124 370T131 418V600Q131 632 141 656T166 697T201 722T239 731H309V671Z"
         id="glyph122211" /><glyph
         unicode="|"
         horiz-adv-x="222"
         d="M77 786H145V-214H77V786Z"
         id="glyph122213" /><glyph
         unicode="}"
         horiz-adv-x="333"
         d="M24 -138H74Q89 -138 98 -131T112 -111T120 -84T122 -52V131Q122 166 132 190T157 231T185 255T209 265V268Q200 269 186 276T157 298T133 338T122 402V583Q122 599 120 615T113 643T98 663T74 671H24V731H94Q113 731 132 723T166 698T192 657T202 600V418Q202 391 209 369T227 332T254 308T285 300V232Q269 232 254 224T228 200T209 163T202 115V-67Q202 -99 192 -123T167 -164T132 -189T94 -198H24V-138Z"
         id="glyph122215" /><glyph
         unicode="~"
         horiz-adv-x="600"
         d="M531 269Q520 253 508 238T481 210T448 191T406 183Q378 183 354 192T304 216Q280 230 252 242T189 255Q172 255 160 248T137 230T119 206T105 179L69 229Q77 245 88 260T115 288T149 307T194 315Q220 315 248 306T305 283Q333 271 360 257T407 243Q422 243 434 250T457 268T477 292T495 319L531 269Z"
         id="glyph122217" /><glyph
         unicode=" "
         horiz-adv-x="278"
         id="glyph122219" /><glyph
         unicode="¡"
         horiz-adv-x="259"
         d="M185 406H74V517H185V406ZM82 22L107 333H152L177 22V-198H82V22Z"
         id="glyph122221" /><glyph
         unicode="¢"
         horiz-adv-x="556"
         d="M272 -12Q217 -10 175 11T105 67T61 149T46 252Q46 306 60 354T102 440T173 501T272 529V624H311V529Q393 527 448 485T514 351H427Q417 397 388 424T311 454V63Q365 68 394 103T432 189H517Q513 152 498 116T457 52T395 6T311 -12V-116H272V-12ZM272 454Q233 449 207 431T166 386T143 324T136 252Q136 218 143 185T167 126T210 83T272 63V454Z"
         id="glyph122223" /><glyph
         unicode="£"
         horiz-adv-x="556"
         d="M47 372H105Q85 406 72 443T58 528Q58 576 76 613T126 677T199 717T286 731Q397 731 460 667T522 473H437Q435 560 399 608T291 656Q261 656 235 646T190 619T159 577T148 525Q148 500 153 480T165 442T182 407T200 372H359V327H222Q230 311 236 292T242 252Q242 218 233 192T207 143T169 101T126 64L128 62Q154 73 178 82T233 91Q262 91 285 86T328 76Q348 70 368 64T412 58Q436 58 459 69T501 95L544 29Q514 3 476 -7T398 -17Q373 -17 349 -11T299 3Q274 11 249 17T194 24Q165 24 141 15T94 -11L47 55Q68 69 88 88T123 130T148 179T157 234Q157 257 149 282T132 327H47V372Z"
         id="glyph122225" /><glyph
         unicode="¤"
         horiz-adv-x="556"
         d="M281 524Q245 524 215 511T162 474T126 418T113 349Q113 313 126 281T161 226T214 190T280 176Q315 176 345 190T396 227T430 283T443 351Q443 386 431 417T397 472T345 510T281 524ZM74 604L130 548Q159 572 199 585T281 599Q321 599 359 586T424 549L481 605L531 554L476 499Q502 471 515 432T528 351Q528 309 515 271T476 201L531 145L484 98L428 156Q399 129 361 115T280 101Q236 101 197 114T128 155L73 97L25 145L80 203Q55 233 42 270T28 349Q28 391 41 430T82 497L25 555L74 604Z"
         id="glyph122227" /><glyph
         unicode="¥"
         horiz-adv-x="556"
         d="M232 174H91V234H232V276L214 309H91V369H183L0 714H109L283 361L452 714H556L378 369H471V309H345L327 276V234H471V174H327V0H232V174Z"
         id="glyph122229" /><glyph
         unicode="¦"
         horiz-adv-x="222"
         d="M145 411H77V661H145V411ZM77 161H145V-89H77V161Z"
         id="glyph122231" /><glyph
         unicode="§"
         horiz-adv-x="556"
         d="M380 546Q379 592 353 624T279 656Q239 656 212 635T184 570Q184 546 198 527T235 490T288 456T350 423Q381 406 411 388T464 346T501 294T516 229Q516 205 508 182T487 140T454 106T412 82Q471 38 471 -38Q471 -74 457 -103T418 -154T359 -186T284 -198Q195 -198 142 -148T83 -9H168Q169 -60 200 -91T282 -123Q300 -123 318 -118T351 -103T374 -77T383 -40Q383 -14 368 7T329 46T273 81T209 116Q177 133 146 152T90 197T50 253T35 325Q35 348 43 370T66 411T100 443T142 463Q120 486 108 511T96 569Q96 608 112 638T154 689T213 720T281 731Q363 731 413 686T465 546H380ZM190 420Q161 410 139 386T117 329Q117 305 126 287T151 255T185 230T222 207Q258 188 293 168T362 124Q391 136 412 159T434 217Q434 238 424 255T397 287T363 313T328 335Q293 356 259 376T190 420Z"
         id="glyph122233" /><glyph
         unicode="¨"
         horiz-adv-x="222"
         d="M-28 706H62V602H-28V706ZM160 706H250V602H160V706Z"
         id="glyph122235" /><glyph
         unicode="©"
         horiz-adv-x="800"
         d="M599 285Q583 212 533 170T413 128Q362 128 321 145T251 193T207 266T191 357Q191 407 206 449T249 521T318 568T410 585Q446 585 477 576T534 547T575 499T598 433H535Q527 475 494 502T411 530Q374 530 346 517T298 481T269 426T259 359Q259 324 269 292T300 236T348 198T413 183Q463 183 495 211T535 285H599ZM92 359Q92 290 115 232T180 130T278 63T401 38Q466 38 522 62T619 130T684 231T708 359Q708 426 685 483T620 584T522 651T401 676Q335 676 279 652T181 584T116 484T92 359ZM24 359Q24 438 54 506T135 624T255 702T401 731Q477 731 545 703T665 624T746 506T776 359Q776 278 746 210T665 91T546 12T401 -17Q324 -17 256 11T136 90T54 209T24 359Z"
         id="glyph122237" /><glyph
         unicode="ª"
         horiz-adv-x="378"
         d="M155 430Q183 430 202 436T234 453T251 475T257 499V546Q241 536 213 532T157 523Q130 518 112 508T93 471Q93 445 111 438T155 430ZM317 462Q317 444 320 437T331 430Q336 430 342 430Q348 430 353 432V388Q343 384 333 382T310 380Q262 380 259 426Q215 380 142 380Q118 380 97 385T60 401T35 429T25 469Q25 495 35 513T63 542T101 560T145 568Q180 572 202 575T237 582T255 593T260 610Q260 626 254 636T236 651T211 657T183 659Q147 659 125 647T100 603H40Q41 632 53 652T86 685T132 703T187 709Q209 709 232 706T274 693T305 666T317 622V462Z"
         id="glyph122239" /><glyph
         unicode="«"
         horiz-adv-x="463"
         d="M50 234V322L202 442V356L102 278L202 200V114L50 234ZM246 234V322L398 442V356L298 278L398 200V114L246 234Z"
         id="glyph122241" /><glyph
         unicode="¬"
         horiz-adv-x="600"
         d="M552 109H484V320H48V388H552V109Z"
         id="glyph122243" /><glyph
         unicode="­"
         horiz-adv-x="389"
         d="M50 318H339V238H50V318Z"
         id="glyph122245" /><glyph
         unicode="®"
         horiz-adv-x="800"
         d="M323 382H394Q416 382 437 383T474 392T499 413T509 454Q509 476 501 489T479 509T448 518T413 521H323V382ZM255 576H424Q502 576 539 545T577 451Q577 392 544 365T462 332L587 139H514L395 327H323V139H255V576ZM92 359Q92 290 115 232T180 130T278 63T401 38Q466 38 522 62T619 130T684 231T708 359Q708 426 685 484T620 584T522 651T401 676Q335 676 279 652T181 585T116 484T92 359ZM24 359Q24 438 54 506T135 624T255 702T401 731Q477 731 545 703T665 624T746 506T776 359Q776 278 746 210T665 91T546 12T401 -17Q324 -17 256 11T136 90T54 209T24 359Z"
         id="glyph122247" /><glyph
         unicode="¯"
         horiz-adv-x="222"
         d="M-59 682H282V627H-59V682Z"
         id="glyph122249" /><glyph
         unicode="°"
         horiz-adv-x="400"
         d="M106 565Q106 547 112 531T131 501T160 479T200 471Q222 471 239 479T269 500T287 530T294 565Q294 583 288 599T269 629T240 651T200 659Q178 659 161 651T131 630T113 600T106 565ZM56 565Q56 595 67 621T97 666T143 697T200 709Q230 709 256 698T301 667T332 621T344 565Q344 535 333 509T302 463T256 432T200 421Q170 421 144 432T98 462T67 508T56 565Z"
         id="glyph122251" /><glyph
         unicode="±"
         horiz-adv-x="600"
         d="M48 68H552V0H48V68ZM48 339H266V505H334V339H552V271H334V104H266V271H48V339Z"
         id="glyph122253" /><glyph
         unicode="²"
         horiz-adv-x="333"
         d="M22 555Q22 624 63 666T175 709Q205 709 232 701T279 676T311 637T323 583Q323 555 313 534T288 495T252 464T210 438Q189 425 168 413T129 389T99 364T82 335H317V280H14Q16 318 26 344T54 391T93 425T139 454Q168 471 190 485T226 513T248 545T255 584Q255 616 231 635T172 654Q127 654 109 624T90 555H22Z"
         id="glyph122255" /><glyph
         unicode="³"
         horiz-adv-x="333"
         d="M132 527H156Q189 527 214 542T239 592Q239 622 217 638T162 654Q121 654 102 630T82 568H14Q18 633 56 671T162 709Q193 709 219 702T265 680T296 643T307 592Q307 563 287 541T239 507V505Q283 497 304 469T326 403Q326 370 313 346T277 305T225 281T164 273Q131 273 102 282T51 308T17 352T4 414H72Q73 372 96 350T164 328Q202 328 230 347T258 400Q258 421 250 435T229 459T200 473T165 477H132V527Z"
         id="glyph122257" /><glyph
         unicode="´"
         horiz-adv-x="222"
         d="M136 732H245L114 589H50L136 732Z"
         id="glyph122259" /><glyph
         unicode="µ"
         horiz-adv-x="556"
         d="M492 0H412V82H410Q383 34 341 11T242 -12Q210 -12 187 -3T151 26H149V-198H64V517H149V167Q149 119 177 91T254 63Q293 63 321 75T369 109T397 160T407 225V517H492V0Z"
         id="glyph122261" /><glyph
         unicode="¶"
         horiz-adv-x="600"
         d="M515 -155H447V659H325V-155H257V322Q211 322 173 336T107 376T64 435T48 508Q48 606 109 660T276 714H515V-155Z"
         id="glyph122263" /><glyph
         unicode="·"
         horiz-adv-x="278"
         d="M75 311Q75 337 94 356T139 375Q165 375 184 356T203 311Q203 287 184 267T140 247Q114 247 95 266T75 311Z"
         id="glyph122265" /><glyph
         unicode="¸"
         horiz-adv-x="222"
         d="M23 -147Q35 -152 51 -156T84 -160Q94 -160 105 -159T125 -153T140 -144T146 -129Q146 -115 133 -107T99 -98Q87 -98 78 -100T58 -106L41 -78L102 0H144L102 -53L104 -55Q114 -48 137 -48Q153 -48 168 -52T195 -66T214 -89T221 -121Q221 -146 210 -163T180 -190T140 -205T97 -210Q73 -210 51 -205T5 -191L23 -147Z"
         id="glyph122267" /><glyph
         unicode="¹"
         horiz-adv-x="333"
         d="M249 280H181V588H66V638Q90 638 112 641T152 653T182 674T199 709H249V280Z"
         id="glyph122269" /><glyph
         unicode="º"
         horiz-adv-x="384"
         d="M192 659Q151 659 122 631T93 543Q93 520 98 500T116 464T147 439T193 430Q220 430 238 439T268 463T285 499T291 542Q291 578 282 601T258 637T226 654T192 659ZM192 709Q233 709 264 697T316 662T348 609T359 543Q359 471 317 426T193 380Q153 380 122 392T70 426T37 477T25 543Q25 578 36 608T68 660T120 696T192 709Z"
         id="glyph122271" /><glyph
         unicode="»"
         horiz-adv-x="463"
         d="M413 322V234L261 114V200L361 278L261 356V442L413 322ZM217 322V234L65 114V200L165 278L65 356V442L217 322Z"
         id="glyph122273" /><glyph
         unicode="¼"
         horiz-adv-x="834"
         d="M219 280H151V588H36V638Q60 638 82 641T122 652T152 674T169 709H219V280ZM585 725H649L214 -28H150L585 725ZM511 151H661V344H659L511 151ZM723 151H783V96H723V0H661V96H462V154L672 429H723V151Z"
         id="glyph122275" /><glyph
         unicode="½"
         horiz-adv-x="834"
         d="M502 275Q502 344 543 386T655 429Q685 429 712 421T759 396T791 357T803 303Q803 275 793 254T768 215T732 184T690 158Q669 145 648 133T609 109T579 84T562 55H797V0H494Q496 38 506 64T534 111T573 145T619 174Q648 191 670 205T706 233T728 265T735 304Q735 336 711 355T652 374Q607 374 589 344T570 275H502ZM219 280H151V588H36V638Q60 638 82 641T122 652T152 674T169 709H219V280ZM570 725H634L199 -28H135L570 725Z"
         id="glyph122277" /><glyph
         unicode="¾"
         horiz-adv-x="834"
         d="M177 527H201Q234 527 259 542T284 592Q284 622 262 638T207 654Q166 654 147 630T127 568H59Q63 633 101 671T207 709Q238 709 264 702T310 680T341 643T352 592Q352 563 332 541T284 507V505Q328 497 349 469T371 403Q371 370 358 346T322 305T270 281T209 273Q176 273 147 282T96 308T62 352T49 414H117Q118 372 141 350T209 328Q247 328 275 347T303 400Q303 421 295 435T274 459T245 473T210 477H177V527ZM650 725H714L279 -28H215L650 725ZM529 147H679V340H677L529 147ZM740 151H800V96H740V0H678V96H479V154L689 429H740V151Z"
         id="glyph122279" /><glyph
         unicode="¿"
         horiz-adv-x="556"
         d="M337 406H226V517H337V406ZM503 30Q504 -21 489 -65T444 -141T373 -192T279 -210Q233 -210 194 -197T127 -158T84 -95T68 -10Q68 21 75 45T94 90T121 127T154 160Q170 175 185 190T213 223T233 261T241 308V339H326V300Q326 269 318 245T296 201T267 165T236 133T207 103T181 71T163 32T158 -18Q162 -73 193 -104T279 -135Q315 -135 341 -122T384 -87T410 -35T418 30H503Z"
         id="glyph122281" /><glyph
         unicode="À"
         horiz-adv-x="648"
         d="M201 295H443L324 628H322L201 295ZM272 714H377L656 0H551L473 215H171L91 0H-7L272 714ZM178 922H287L373 779H309L178 922Z"
         id="glyph122283" /><glyph
         unicode="Á"
         horiz-adv-x="648"
         d="M201 295H443L324 628H322L201 295ZM272 714H377L656 0H551L473 215H171L91 0H-7L272 714ZM362 922H471L340 779H276L362 922Z"
         id="glyph122285" /><glyph
         unicode="Â"
         horiz-adv-x="648"
         d="M201 295H443L324 628H322L201 295ZM272 714H377L656 0H551L473 215H171L91 0H-7L272 714ZM279 922H372L476 779H392L323 875L253 779H176L279 922Z"
         id="glyph122287" /><glyph
         unicode="Ã"
         horiz-adv-x="648"
         d="M201 295H443L324 628H322L201 295ZM272 714H377L656 0H551L473 215H171L91 0H-7L272 714ZM497 907Q491 863 465 828Q452 812 436 804T396 796Q375 796 357 802T321 816Q303 823 286 829T255 835Q247 835 239 832T224 824T215 812T206 793H154Q159 817 167 836T188 870T218 894T260 903Q280 903 298 897T333 883T366 869T399 863Q417 863 428 875T445 907H497Z"
         id="glyph122289" /><glyph
         unicode="Ä"
         horiz-adv-x="648"
         d="M201 295H443L324 628H322L201 295ZM272 714H377L656 0H551L473 215H171L91 0H-7L272 714ZM185 897H275V793H185V897ZM373 897H463V793H373V897Z"
         id="glyph122291" /><glyph
         unicode="Å"
         horiz-adv-x="648"
         d="M211 861Q211 884 220 904T244 940T280 964T324 973Q347 973 367 965T403 941T428 905T437 861Q437 838 428 818T404 782T368 758T324 749Q301 749 281 757T245 781T220 817T211 861ZM257 860Q257 831 276 812T324 792Q353 792 372 811T391 860Q391 889 372 908T324 928Q295 928 276 909T257 860ZM201 295H443L324 628H322L201 295ZM272 714H377L656 0H551L473 215H171L91 0H-7L272 714Z"
         id="glyph122293" /><glyph
         unicode="Æ"
         horiz-adv-x="926"
         d="M407 634L239 288H448V634H407ZM354 714H889V634H538V407H868V327H538V80H895V0H448V208H202L100 0H-7L354 714Z"
         id="glyph122295" /><glyph
         unicode="Ç"
         horiz-adv-x="722"
         d="M580 499Q572 537 554 565T510 613T450 641T380 651Q316 651 271 627T196 563T152 470T138 362Q138 301 152 247T195 152T271 87T381 63Q428 63 464 78T527 121T569 187T587 269H682Q668 137 591 62T381 -16L352 -53L354 -55Q364 -48 387 -48Q403 -48 418 -52T445 -66T464 -89T471 -121Q471 -146 460 -163T430 -190T390 -205T347 -210Q323 -210 301 -205T255 -191L273 -147Q285 -152 301 -156T334 -160Q344 -160 355 -159T375 -153T390 -144T396 -129Q396 -115 383 -107T349 -98Q337 -98 328 -100T308 -106L291 -78L340 -15Q265 -9 209 21T117 101T62 216T43 355Q43 433 65 501T129 621T235 701T381 731Q437 731 487 716T576 672T641 600T675 499H580Z"
         id="glyph122297" /><glyph
         unicode="È"
         horiz-adv-x="611"
         d="M78 714H571V634H173V407H544V327H173V80H574V0H78V714ZM168 922H277L363 779H299L168 922Z"
         id="glyph122299" /><glyph
         unicode="É"
         horiz-adv-x="611"
         d="M78 714H571V634H173V407H544V327H173V80H574V0H78V714ZM370 922H479L348 779H284L370 922Z"
         id="glyph122301" /><glyph
         unicode="Ê"
         horiz-adv-x="611"
         d="M78 714H571V634H173V407H544V327H173V80H574V0H78V714ZM278 922H371L475 779H391L322 875L252 779H175L278 922Z"
         id="glyph122303" /><glyph
         unicode="Ë"
         horiz-adv-x="611"
         d="M78 714H571V634H173V407H544V327H173V80H574V0H78V714ZM189 896H279V792H189V896ZM377 896H467V792H377V896Z"
         id="glyph122305" /><glyph
         unicode="Ì"
         horiz-adv-x="259"
         d="M82 714H177V0H82V714ZM-18 922H91L177 779H113L-18 922Z"
         id="glyph122307" /><glyph
         unicode="Í"
         horiz-adv-x="259"
         d="M82 714H177V0H82V714ZM169 922H278L147 779H83L169 922Z"
         id="glyph122309" /><glyph
         unicode="Î"
         horiz-adv-x="259"
         d="M82 714H177V0H82V714ZM87 922H180L284 779H200L131 875L61 779H-16L87 922Z"
         id="glyph122311" /><glyph
         unicode="Ï"
         horiz-adv-x="259"
         d="M82 714H177V0H82V714ZM-9 896H81V792H-9V896ZM179 896H269V792H179V896Z"
         id="glyph122313" /><glyph
         unicode="Ð"
         horiz-adv-x="704"
         d="M173 407H387V339H173V80H331Q347 80 371 82T422 94T475 122T523 171T557 248T571 361Q571 425 559 475T518 561T444 615T333 634H173V407ZM78 339H8V407H78V714H323Q488 714 577 630T666 374Q666 284 646 215T584 98T477 25T323 0H78V339Z"
         id="glyph122315" /><glyph
         unicode="Ñ"
         horiz-adv-x="722"
         d="M77 714H178L554 135H556V714H646V0H542L169 573H167V0H77V714ZM539 907Q533 863 507 828Q494 812 478 804T438 796Q417 796 399 802T363 816Q345 823 328 829T297 835Q289 835 281 832T266 824T257 812T248 793H196Q201 817 209 836T230 870T260 894T302 903Q322 903 340 897T375 883T408 869T441 863Q459 863 470 875T487 907H539Z"
         id="glyph122317" /><glyph
         unicode="Ò"
         horiz-adv-x="760"
         d="M133 357Q133 303 147 251T191 156T268 89T380 63Q445 63 492 88T569 156T613 250T627 357Q627 411 613 463T569 558T492 625T380 651Q315 651 268 626T191 558T147 464T133 357ZM38 357Q38 430 59 497T124 617T231 700T380 731Q465 731 529 700T636 617T700 498T722 357Q722 284 701 217T636 97T529 14T380 -17Q295 -17 231 14T124 97T60 216T38 357ZM231 922H340L426 779H362L231 922Z"
         id="glyph122319" /><glyph
         unicode="Ó"
         horiz-adv-x="760"
         d="M133 357Q133 303 147 251T191 156T268 89T380 63Q445 63 492 88T569 156T613 250T627 357Q627 411 613 463T569 558T492 625T380 651Q315 651 268 626T191 558T147 464T133 357ZM38 357Q38 430 59 497T124 617T231 700T380 731Q465 731 529 700T636 617T700 498T722 357Q722 284 701 217T636 97T529 14T380 -17Q295 -17 231 14T124 97T60 216T38 357ZM411 922H520L389 779H325L411 922Z"
         id="glyph122321" /><glyph
         unicode="Ô"
         horiz-adv-x="760"
         d="M133 357Q133 303 147 251T191 156T268 89T380 63Q445 63 492 88T569 156T613 250T627 357Q627 411 613 463T569 558T492 625T380 651Q315 651 268 626T191 558T147 464T133 357ZM38 357Q38 430 59 497T124 617T231 700T380 731Q465 731 529 700T636 617T700 498T722 357Q722 284 701 217T636 97T529 14T380 -17Q295 -17 231 14T124 97T60 216T38 357ZM335 922H428L532 779H448L379 875L309 779H232L335 922Z"
         id="glyph122323" /><glyph
         unicode="Õ"
         horiz-adv-x="760"
         d="M133 357Q133 303 147 251T191 156T268 89T380 63Q445 63 492 88T569 156T613 250T627 357Q627 411 613 463T569 558T492 625T380 651Q315 651 268 626T191 558T147 464T133 357ZM38 357Q38 430 59 497T124 617T231 700T380 731Q465 731 529 700T636 617T700 498T722 357Q722 284 701 217T636 97T529 14T380 -17Q295 -17 231 14T124 97T60 216T38 357ZM554 907Q548 863 522 828Q509 812 493 804T453 796Q432 796 414 802T378 816Q360 823 343 829T312 835Q304 835 296 832T281 824T272 812T263 793H211Q216 817 224 836T245 870T275 894T317 903Q337 903 355 897T390 883T423 869T456 863Q474 863 485 875T502 907H554Z"
         id="glyph122325" /><glyph
         unicode="Ö"
         horiz-adv-x="760"
         d="M133 357Q133 303 147 251T191 156T268 89T380 63Q445 63 492 88T569 156T613 250T627 357Q627 411 613 463T569 558T492 625T380 651Q315 651 268 626T191 558T147 464T133 357ZM38 357Q38 430 59 497T124 617T231 700T380 731Q465 731 529 700T636 617T700 498T722 357Q722 284 701 217T636 97T529 14T380 -17Q295 -17 231 14T124 97T60 216T38 357ZM242 896H332V792H242V896ZM430 896H520V792H430V896Z"
         id="glyph122327" /><glyph
         unicode="×"
         horiz-adv-x="600"
         d="M71 72L253 254L72 434L120 482L301 302L481 482L529 434L349 254L530 72L482 24L301 206L119 24L71 72Z"
         id="glyph122329" /><glyph
         unicode="Ø"
         horiz-adv-x="760"
         d="M723 700L641 610Q682 558 702 493T722 357Q722 284 701 217T636 97T529 14T380 -17Q307 -17 250 6T151 69L70 -20L37 10L121 102Q79 153 59 219T38 357Q38 430 59 497T124 617T231 700T380 731Q455 731 512 708T612 643L691 730L723 700ZM210 134Q239 101 281 82T380 63Q445 63 492 88T569 156T613 250T627 357Q627 406 616 454T579 541L210 134ZM552 577Q523 611 480 631T380 651Q315 651 268 626T191 558T147 464T133 357Q133 306 145 258T183 170L552 577Z"
         id="glyph122331" /><glyph
         unicode="Ù"
         horiz-adv-x="722"
         d="M648 258Q648 122 575 53T367 -17Q298 -17 244 -1T152 49T94 135T74 258V714H169V258Q169 163 220 113T367 63Q458 63 505 113T553 258V714H648V258ZM213 922H322L408 779H344L213 922Z"
         id="glyph122333" /><glyph
         unicode="Ú"
         horiz-adv-x="722"
         d="M648 258Q648 122 575 53T367 -17Q298 -17 244 -1T152 49T94 135T74 258V714H169V258Q169 163 220 113T367 63Q458 63 505 113T553 258V714H648V258ZM401 922H510L379 779H315L401 922Z"
         id="glyph122335" /><glyph
         unicode="Û"
         horiz-adv-x="722"
         d="M648 258Q648 122 575 53T367 -17Q298 -17 244 -1T152 49T94 135T74 258V714H169V258Q169 163 220 113T367 63Q458 63 505 113T553 258V714H648V258ZM318 922H411L515 779H431L362 875L292 779H215L318 922Z"
         id="glyph122337" /><glyph
         unicode="Ü"
         horiz-adv-x="722"
         d="M648 258Q648 122 575 53T367 -17Q298 -17 244 -1T152 49T94 135T74 258V714H169V258Q169 163 220 113T367 63Q458 63 505 113T553 258V714H648V258ZM223 896H313V792H223V896ZM411 896H501V792H411V896Z"
         id="glyph122339" /><glyph
         unicode="Ý"
         horiz-adv-x="648"
         d="M373 292V0H278V292L2 714H115L329 374L538 714H646L373 292ZM380 922H489L358 779H294L380 922Z"
         id="glyph122341" /><glyph
         unicode="Þ"
         horiz-adv-x="648"
         d="M173 258H359Q440 257 477 290T515 388Q515 453 478 486T359 520H173V258ZM78 0V714H173V600H391Q498 600 554 544T610 388Q610 288 554 233T391 178H173V0H78Z"
         id="glyph122343" /><glyph
         unicode="ß"
         horiz-adv-x="556"
         d="M64 531Q64 576 78 612T118 675T180 716T262 731Q299 731 336 720T402 687T450 632T469 556Q469 500 445 460T365 401V399Q399 395 424 379T467 338T492 284T501 220Q501 169 484 126T437 53T364 5T270 -12Q259 -12 249 -11T227 -8V66Q235 64 244 64T261 63Q330 63 370 103T411 209Q411 258 398 287T361 333T303 354T227 359V427Q257 425 284 430T333 448T366 485T379 543Q379 567 371 587T347 623T312 647T268 656Q242 656 220 650T182 628T158 585T149 516V0H64V531Z"
         id="glyph122345" /><glyph
         unicode="à"
         horiz-adv-x="537"
         d="M522 2Q499 -12 461 -12Q428 -12 409 7T389 68Q354 26 308 7T207 -12Q172 -12 141 -4T86 21T50 66T36 133Q36 177 51 205T90 250T146 276T211 292Q246 299 277 302T333 312T371 331T385 368Q385 396 375 413T348 439T311 451T270 454Q216 454 180 434T141 356H56Q58 404 76 437T124 490T193 520T275 529Q310 529 344 524T407 504T452 460T469 387V121Q469 91 472 77T496 63Q508 63 522 68V2ZM384 267Q372 258 354 253T316 245T274 239T230 232T190 222T157 206T135 179T126 139Q126 118 134 104T156 80T188 67T226 63Q268 63 298 74T347 103T375 141T384 180V267ZM140 732H249L335 589H271L140 732Z"
         id="glyph122347" /><glyph
         unicode="á"
         horiz-adv-x="537"
         d="M522 2Q499 -12 461 -12Q428 -12 409 7T389 68Q354 26 308 7T207 -12Q172 -12 141 -4T86 21T50 66T36 133Q36 177 51 205T90 250T146 276T211 292Q246 299 277 302T333 312T371 331T385 368Q385 396 375 413T348 439T311 451T270 454Q216 454 180 434T141 356H56Q58 404 76 437T124 490T193 520T275 529Q310 529 344 524T407 504T452 460T469 387V121Q469 91 472 77T496 63Q508 63 522 68V2ZM384 267Q372 258 354 253T316 245T274 239T230 232T190 222T157 206T135 179T126 139Q126 118 134 104T156 80T188 67T226 63Q268 63 298 74T347 103T375 141T384 180V267ZM318 732H427L296 589H232L318 732Z"
         id="glyph122349" /><glyph
         unicode="â"
         horiz-adv-x="537"
         d="M522 2Q499 -12 461 -12Q428 -12 409 7T389 68Q354 26 308 7T207 -12Q172 -12 141 -4T86 21T50 66T36 133Q36 177 51 205T90 250T146 276T211 292Q246 299 277 302T333 312T371 331T385 368Q385 396 375 413T348 439T311 451T270 454Q216 454 180 434T141 356H56Q58 404 76 437T124 490T193 520T275 529Q310 529 344 524T407 504T452 460T469 387V121Q469 91 472 77T496 63Q508 63 522 68V2ZM384 267Q372 258 354 253T316 245T274 239T230 232T190 222T157 206T135 179T126 139Q126 118 134 104T156 80T188 67T226 63Q268 63 298 74T347 103T375 141T384 180V267ZM227 732H320L424 589H340L271 685L201 589H124L227 732Z"
         id="glyph122351" /><glyph
         unicode="ã"
         horiz-adv-x="537"
         d="M522 2Q499 -12 461 -12Q428 -12 409 7T389 68Q354 26 308 7T207 -12Q172 -12 141 -4T86 21T50 66T36 133Q36 177 51 205T90 250T146 276T211 292Q246 299 277 302T333 312T371 331T385 368Q385 396 375 413T348 439T311 451T270 454Q216 454 180 434T141 356H56Q58 404 76 437T124 490T193 520T275 529Q310 529 344 524T407 504T452 460T469 387V121Q469 91 472 77T496 63Q508 63 522 68V2ZM384 267Q372 258 354 253T316 245T274 239T230 232T190 222T157 206T135 179T126 139Q126 118 134 104T156 80T188 67T226 63Q268 63 298 74T347 103T375 141T384 180V267ZM447 717Q441 673 415 638Q402 622 386 614T346 606Q325 606 307 612T271 626Q253 633 236 639T205 645Q197 645 189 642T174 634T165 622T156 603H104Q109 627 117 646T138 680T168 704T210 713Q230 713 248 707T283 693T316 679T349 673Q367 673 378 685T395 717H447Z"
         id="glyph122353" /><glyph
         unicode="ä"
         horiz-adv-x="537"
         d="M133 706H223V602H133V706ZM321 706H411V602H321V706ZM522 2Q499 -12 461 -12Q428 -12 409 7T389 68Q354 26 308 7T207 -12Q172 -12 141 -4T86 21T50 66T36 133Q36 177 51 205T90 250T146 276T211 292Q246 299 277 302T333 312T371 331T385 368Q385 396 375 413T348 439T311 451T270 454Q216 454 180 434T141 356H56Q58 404 76 437T124 490T193 520T275 529Q310 529 344 524T407 504T452 460T469 387V121Q469 91 472 77T496 63Q508 63 522 68V2ZM384 267Q372 258 354 253T316 245T274 239T230 232T190 222T157 206T135 179T126 139Q126 118 134 104T156 80T188 67T226 63Q268 63 298 74T347 103T375 141T384 180V267Z"
         id="glyph122355" /><glyph
         unicode="å"
         horiz-adv-x="537"
         d="M522 2Q499 -12 461 -12Q428 -12 409 7T389 68Q354 26 308 7T207 -12Q172 -12 141 -4T86 21T50 66T36 133Q36 177 51 205T90 250T146 276T211 292Q246 299 277 302T333 312T371 331T385 368Q385 396 375 413T348 439T311 451T270 454Q216 454 180 434T141 356H56Q58 404 76 437T124 490T193 520T275 529Q310 529 344 524T407 504T452 460T469 387V121Q469 91 472 77T496 63Q508 63 522 68V2ZM384 267Q372 258 354 253T316 245T274 239T230 232T190 222T157 206T135 179T126 139Q126 118 134 104T156 80T188 67T226 63Q268 63 298 74T347 103T375 141T384 180V267ZM160 677Q160 700 169 720T193 756T229 780T273 789Q296 789 316 781T352 757T377 721T386 677Q386 654 377 634T353 598T317 574T273 565Q250 565 230 573T194 597T169 633T160 677ZM206 676Q206 647 225 628T273 608Q302 608 321 627T340 676Q340 705 321 724T273 744Q244 744 225 725T206 676Z"
         id="glyph122357" /><glyph
         unicode="æ"
         horiz-adv-x="870"
         d="M467 233Q467 198 476 168T505 114T553 77T622 63Q670 63 705 87T753 163H840Q821 78 762 33T616 -12Q586 -12 558 -7T506 9T462 40T429 89Q400 36 342 12T211 -12Q174 -12 142 -4T87 21T50 66T36 133Q36 177 51 205T90 250T146 276T211 292Q258 301 291 306T346 318T377 338T387 374Q387 400 377 416T350 440T312 451T270 454Q216 454 180 434T141 356H56Q58 404 76 437T124 490T193 520T275 529Q297 529 322 527T372 516T416 493T448 454Q474 494 520 511T613 529Q680 529 725 506T797 442T835 347T846 233H467ZM126 139Q126 118 134 104T156 80T188 67T226 63Q268 63 298 74T348 103T377 141T387 180V267Q374 259 356 254T316 245T273 239T230 232Q209 228 190 222T157 206T135 179T126 139ZM756 308Q755 338 746 365T718 411T673 442T613 454Q579 454 552 443T506 413T477 366T467 308H756Z"
         id="glyph122359" /><glyph
         unicode="ç"
         horiz-adv-x="537"
         d="M415 351Q405 400 373 427T287 454Q241 454 210 437T161 392T134 328T126 252Q126 216 134 182T161 122T207 79T277 63Q339 63 375 96T419 189H506Q492 98 438 46T293 -11L260 -53L262 -55Q272 -48 295 -48Q311 -48 326 -52T353 -66T372 -89T379 -121Q379 -146 368 -163T338 -190T298 -205T255 -210Q231 -210 209 -205T163 -191L181 -147Q193 -152 209 -156T242 -160Q252 -160 263 -159T283 -153T298 -144T304 -129Q304 -115 291 -107T257 -98Q245 -98 236 -100T216 -106L199 -78L252 -10Q199 -6 159 15T91 70T50 151T36 252Q36 310 51 360T96 448T172 507T280 529Q324 529 362 519T431 486T479 431T503 351H415Z"
         id="glyph122361" /><glyph
         unicode="è"
         horiz-adv-x="537"
         d="M423 308Q421 338 410 365T379 411T332 442T274 454Q241 454 215 443T169 411T139 365T126 308H423ZM505 164Q488 78 430 33T284 -12Q222 -12 177 8T100 65T54 151T36 260Q36 318 54 367T104 453T181 509T279 529Q348 529 393 501T466 428T504 332T513 233H126Q125 199 134 169T163 115T214 77T287 63Q340 63 375 88T421 164H505ZM149 732H258L344 589H280L149 732Z"
         id="glyph122363" /><glyph
         unicode="é"
         horiz-adv-x="537"
         d="M423 308Q421 338 410 365T379 411T332 442T274 454Q241 454 215 443T169 411T139 365T126 308H423ZM505 164Q488 78 430 33T284 -12Q222 -12 177 8T100 65T54 151T36 260Q36 318 54 367T104 453T181 509T279 529Q348 529 393 501T466 428T504 332T513 233H126Q125 199 134 169T163 115T214 77T287 63Q340 63 375 88T421 164H505ZM326 732H435L304 589H240L326 732Z"
         id="glyph122365" /><glyph
         unicode="ê"
         horiz-adv-x="537"
         d="M423 308Q421 338 410 365T379 411T332 442T274 454Q241 454 215 443T169 411T139 365T126 308H423ZM505 164Q488 78 430 33T284 -12Q222 -12 177 8T100 65T54 151T36 260Q36 318 54 367T104 453T181 509T279 529Q348 529 393 501T466 428T504 332T513 233H126Q125 199 134 169T163 115T214 77T287 63Q340 63 375 88T421 164H505ZM234 732H327L431 589H347L278 685L208 589H131L234 732Z"
         id="glyph122367" /><glyph
         unicode="ë"
         horiz-adv-x="537"
         d="M423 308Q421 338 410 365T379 411T332 442T274 454Q241 454 215 443T169 411T139 365T126 308H423ZM505 164Q488 78 430 33T284 -12Q222 -12 177 8T100 65T54 151T36 260Q36 318 54 367T104 453T181 509T279 529Q348 529 393 501T466 428T504 332T513 233H126Q125 199 134 169T163 115T214 77T287 63Q340 63 375 88T421 164H505ZM139 706H229V602H139V706ZM327 706H417V602H327V706Z"
         id="glyph122369" /><glyph
         unicode="ì"
         horiz-adv-x="222"
         d="M69 0V517H154V0H69ZM-38 732H71L157 589H93L-38 732Z"
         id="glyph122371" /><glyph
         unicode="í"
         horiz-adv-x="222"
         d="M69 0V517H154V0H69ZM153 732H262L131 589H67L153 732Z"
         id="glyph122373" /><glyph
         unicode="î"
         horiz-adv-x="222"
         d="M69 0V517H154V0H69ZM66 732H159L263 589H179L110 685L40 589H-37L66 732Z"
         id="glyph122375" /><glyph
         unicode="ï"
         horiz-adv-x="222"
         d="M-27 706H63V602H-27V706ZM161 706H251V602H161V706ZM69 0V517H154V0H69Z"
         id="glyph122377" /><glyph
         unicode="ð"
         horiz-adv-x="574"
         d="M282 431Q205 431 166 383T126 258Q126 211 138 175T173 114T224 76T287 63Q320 63 349 76T401 113T435 174T448 258Q448 292 439 323T409 379T358 417T282 431ZM272 506Q312 506 348 494T411 450H413Q401 476 385 499T352 543T319 578T291 601L176 547L138 587L247 638Q231 652 211 665T177 686L247 731Q261 721 282 706T324 675L444 731L479 694L364 641Q454 567 496 470T538 258Q538 201 522 152T474 67T395 9T287 -12Q225 -12 179 9T100 66T52 152T36 258Q36 307 51 351T97 430T171 485T272 506Z"
         id="glyph122379" /><glyph
         unicode="ñ"
         horiz-adv-x="556"
         d="M64 517H144V435H146Q173 483 215 506T314 529Q365 529 399 515T454 476T483 417T492 340V0H407V350Q407 398 379 426T302 454Q263 454 235 442T187 408T159 357T149 292V0H64V517ZM450 717Q444 673 418 638Q405 622 389 614T349 606Q328 606 310 612T274 626Q256 633 239 639T208 645Q200 645 192 642T177 634T168 622T159 603H107Q112 627 120 646T141 680T171 704T213 713Q233 713 251 707T286 693T319 679T352 673Q370 673 381 685T398 717H450Z"
         id="glyph122381" /><glyph
         unicode="ò"
         horiz-adv-x="574"
         d="M126 258Q126 211 138 175T173 114T224 76T287 63Q320 63 349 76T401 113T435 174T448 258Q448 305 436 341T401 403T350 441T287 454Q254 454 225 441T173 403T139 342T126 258ZM36 258Q36 315 52 364T100 450T178 508T287 529Q348 529 395 508T474 451T522 365T538 258Q538 201 522 152T474 67T395 9T287 -12Q225 -12 179 9T100 66T52 152T36 258ZM128 732H237L323 589H259L128 732Z"
         id="glyph122383" /><glyph
         unicode="ó"
         horiz-adv-x="574"
         d="M126 258Q126 211 138 175T173 114T224 76T287 63Q320 63 349 76T401 113T435 174T448 258Q448 305 436 341T401 403T350 441T287 454Q254 454 225 441T173 403T139 342T126 258ZM36 258Q36 315 52 364T100 450T178 508T287 529Q348 529 395 508T474 451T522 365T538 258Q538 201 522 152T474 67T395 9T287 -12Q225 -12 179 9T100 66T52 152T36 258ZM324 732H433L302 589H238L324 732Z"
         id="glyph122385" /><glyph
         unicode="ô"
         horiz-adv-x="574"
         d="M126 258Q126 211 138 175T173 114T224 76T287 63Q320 63 349 76T401 113T435 174T448 258Q448 305 436 341T401 403T350 441T287 454Q254 454 225 441T173 403T139 342T126 258ZM36 258Q36 315 52 364T100 450T178 508T287 529Q348 529 395 508T474 451T522 365T538 258Q538 201 522 152T474 67T395 9T287 -12Q225 -12 179 9T100 66T52 152T36 258ZM242 732H335L439 589H355L286 685L216 589H139L242 732Z"
         id="glyph122387" /><glyph
         unicode="õ"
         horiz-adv-x="574"
         d="M126 258Q126 211 138 175T173 114T224 76T287 63Q320 63 349 76T401 113T435 174T448 258Q448 305 436 341T401 403T350 441T287 454Q254 454 225 441T173 403T139 342T126 258ZM36 258Q36 315 52 364T100 450T178 508T287 529Q348 529 395 508T474 451T522 365T538 258Q538 201 522 152T474 67T395 9T287 -12Q225 -12 179 9T100 66T52 152T36 258ZM460 717Q454 673 428 638Q415 622 399 614T359 606Q338 606 320 612T284 626Q266 633 249 639T218 645Q210 645 202 642T187 634T178 622T169 603H117Q122 627 130 646T151 680T181 704T223 713Q243 713 261 707T296 693T329 679T362 673Q380 673 391 685T408 717H460Z"
         id="glyph122389" /><glyph
         unicode="ö"
         horiz-adv-x="574"
         d="M126 258Q126 211 138 175T173 114T224 76T287 63Q320 63 349 76T401 113T435 174T448 258Q448 305 436 341T401 403T350 441T287 454Q254 454 225 441T173 403T139 342T126 258ZM36 258Q36 315 52 364T100 450T178 508T287 529Q348 529 395 508T474 451T522 365T538 258Q538 201 522 152T474 67T395 9T287 -12Q225 -12 179 9T100 66T52 152T36 258ZM148 706H238V602H148V706ZM336 706H426V602H336V706Z"
         id="glyph122391" /><glyph
         unicode="÷"
         horiz-adv-x="600"
         d="M236 47Q236 73 255 92T300 111Q326 111 345 92T364 47Q364 23 345 3T301 -17Q275 -17 256 2T236 47ZM236 459Q236 485 255 504T300 523Q326 523 345 504T364 459Q364 435 345 415T301 395Q275 395 256 414T236 459ZM48 287H552V219H48V287Z"
         id="glyph122393" /><glyph
         unicode="ø"
         horiz-adv-x="574"
         d="M480 443Q509 408 523 361T538 258Q538 201 522 152T474 67T395 9T287 -12Q235 -12 194 3T122 45L62 -22L34 2L96 71Q66 108 51 155T36 258Q36 315 52 364T100 450T178 508T287 529Q340 529 381 514T455 470L513 535L540 509L480 443ZM178 108Q223 63 287 63Q320 63 349 76T401 113T435 174T448 258Q448 295 441 324T420 377L178 108ZM398 407Q354 454 287 454Q254 454 225 441T173 403T139 342T126 258Q126 222 134 192T156 137L398 407Z"
         id="glyph122395" /><glyph
         unicode="ù"
         horiz-adv-x="556"
         d="M492 0H412V82H410Q383 34 341 11T242 -12Q191 -12 157 2T102 41T73 100T64 177V517H149V167Q149 119 177 91T254 63Q293 63 321 75T369 109T397 160T407 225V517H492V0ZM125 732H234L320 589H256L125 732Z"
         id="glyph122397" /><glyph
         unicode="ú"
         horiz-adv-x="556"
         d="M492 0H412V82H410Q383 34 341 11T242 -12Q191 -12 157 2T102 41T73 100T64 177V517H149V167Q149 119 177 91T254 63Q293 63 321 75T369 109T397 160T407 225V517H492V0ZM315 732H424L293 589H229L315 732Z"
         id="glyph122399" /><glyph
         unicode="û"
         horiz-adv-x="556"
         d="M492 0H412V82H410Q383 34 341 11T242 -12Q191 -12 157 2T102 41T73 100T64 177V517H149V167Q149 119 177 91T254 63Q293 63 321 75T369 109T397 160T407 225V517H492V0ZM231 732H324L428 589H344L275 685L205 589H128L231 732Z"
         id="glyph122401" /><glyph
         unicode="ü"
         horiz-adv-x="556"
         d="M492 0H412V82H410Q383 34 341 11T242 -12Q191 -12 157 2T102 41T73 100T64 177V517H149V167Q149 119 177 91T254 63Q293 63 321 75T369 109T397 160T407 225V517H492V0ZM138 706H228V602H138V706ZM326 706H416V602H326V706Z"
         id="glyph122403" /><glyph
         unicode="ý"
         horiz-adv-x="500"
         d="M267 -69Q252 -107 238 -133T206 -175T167 -199T117 -207Q102 -207 87 -205T58 -198V-120Q70 -124 82 -128T108 -132Q134 -132 150 -120T178 -85L213 3L8 517H104L255 94H257L402 517H492L267 -69ZM307 732H416L285 589H221L307 732Z"
         id="glyph122405" /><glyph
         unicode="þ"
         horiz-adv-x="593"
         d="M152 447H154Q175 490 220 509T319 529Q379 529 423 507T497 448T542 361T557 257Q557 202 543 153T499 68T425 10T321 -12Q301 -12 278 -8T232 5T189 30T154 69H152V-198H67V714H152V447ZM467 263Q467 299 458 333T429 395T379 438T307 454Q264 454 234 437T185 393T158 330T149 259Q149 221 158 186T186 123T237 80T312 63Q355 63 385 80T433 125T459 189T467 263Z"
         id="glyph122407" /><glyph
         unicode="ÿ"
         horiz-adv-x="500"
         d="M267 -69Q252 -107 238 -133T206 -175T167 -199T117 -207Q102 -207 87 -205T58 -198V-120Q70 -124 82 -128T108 -132Q134 -132 150 -120T178 -85L213 3L8 517H104L255 94H257L402 517H492L267 -69ZM118 706H208V602H118V706ZM306 706H396V602H306V706Z"
         id="glyph122409" /><glyph
         unicode="Ā"
         horiz-adv-x="648"
         d="M201 295H443L324 628H322L201 295ZM272 714H377L656 0H551L473 215H171L91 0H-7L272 714ZM153 872H494V817H153V872Z"
         id="glyph122411" /><glyph
         unicode="ā"
         horiz-adv-x="537"
         d="M522 2Q499 -12 461 -12Q428 -12 409 7T389 68Q354 26 308 7T207 -12Q172 -12 141 -4T86 21T50 66T36 133Q36 177 51 205T90 250T146 276T211 292Q246 299 277 302T333 312T371 331T385 368Q385 396 375 413T348 439T311 451T270 454Q216 454 180 434T141 356H56Q58 404 76 437T124 490T193 520T275 529Q310 529 344 524T407 504T452 460T469 387V121Q469 91 472 77T496 63Q508 63 522 68V2ZM384 267Q372 258 354 253T316 245T274 239T230 232T190 222T157 206T135 179T126 139Q126 118 134 104T156 80T188 67T226 63Q268 63 298 74T347 103T375 141T384 180V267ZM108 682H449V627H108V682Z"
         id="glyph122413" /><glyph
         unicode="Ă"
         horiz-adv-x="648"
         d="M201 295H443L324 628H322L201 295ZM272 714H377L656 0H551L473 215H171L91 0H-7L272 714ZM217 919Q241 836 329 836Q372 836 392 858T428 919H479Q468 855 428 818T321 781Q252 781 215 816T167 919H217Z"
         id="glyph122415" /><glyph
         unicode="ă"
         horiz-adv-x="537"
         d="M522 2Q499 -12 461 -12Q428 -12 409 7T389 68Q354 26 308 7T207 -12Q172 -12 141 -4T86 21T50 66T36 133Q36 177 51 205T90 250T146 276T211 292Q246 299 277 302T333 312T371 331T385 368Q385 396 375 413T348 439T311 451T270 454Q216 454 180 434T141 356H56Q58 404 76 437T124 490T193 520T275 529Q310 529 344 524T407 504T452 460T469 387V121Q469 91 472 77T496 63Q508 63 522 68V2ZM384 267Q372 258 354 253T316 245T274 239T230 232T190 222T157 206T135 179T126 139Q126 118 134 104T156 80T188 67T226 63Q268 63 298 74T347 103T375 141T384 180V267ZM170 729Q194 646 282 646Q325 646 345 668T381 729H432Q421 665 381 628T274 591Q205 591 168 626T120 729H170Z"
         id="glyph122417" /><glyph
         unicode="Ą"
         horiz-adv-x="648"
         d="M591 0Q565 -22 549 -38T524 -68T511 -95T507 -118Q507 -134 516 -147T545 -160Q568 -160 582 -152T607 -130L639 -148Q619 -183 591 -196T531 -210Q522 -210 507 -209T476 -199T450 -175T439 -128Q439 -121 442 -109T458 -79T492 -41T551 0L473 215H171L91 0H-7L272 714H377L656 0H591ZM201 295H443L324 628H322L201 295Z"
         id="glyph122419" /><glyph
         unicode="ą"
         horiz-adv-x="537"
         d="M522 2Q499 -12 461 -12Q456 -12 452 -11Q435 -26 424 -38Q408 -54 399 -68T386 -95T382 -118Q382 -134 391 -147T420 -160Q443 -160 457 -152T482 -130L514 -148Q494 -183 466 -196T406 -210Q397 -210 382 -209T351 -199T325 -175T314 -128Q314 -121 317 -109T333 -79T367 -40Q388 -21 421 -2Q414 1 408 7Q389 26 389 68Q354 26 308 7T207 -12Q172 -12 141 -4T86 21T50 66T36 133Q36 177 51 205T90 250T146 276T211 292Q246 299 277 302T333 312T371 331T385 368Q385 396 375 413T348 439T311 451T270 454Q216 454 180 434T141 356H56Q58 404 76 437T124 490T193 520T275 529Q310 529 344 524T407 504T452 460T469 387V121Q469 91 472 77T496 63Q508 63 522 68V2ZM384 267Q372 258 354 253T316 245T274 239T230 232T190 222T157 206T135 179T126 139Q126 118 134 104T156 80T188 67T226 63Q268 63 298 74T347 103T375 141T384 180V267Z"
         id="glyph122421" /><glyph
         unicode="Ć"
         horiz-adv-x="722"
         d="M580 499Q572 537 554 565T510 613T450 641T380 651Q316 651 271 627T196 563T152 470T138 362Q138 301 152 247T195 152T271 87T381 63Q428 63 464 78T527 121T569 187T587 269H682Q668 135 589 59T373 -17Q290 -17 228 12T125 91T64 209T43 355Q43 433 65 501T129 621T235 701T381 731Q437 731 487 716T576 672T641 600T675 499H580ZM432 922H541L410 779H346L432 922Z"
         id="glyph122423" /><glyph
         unicode="ć"
         horiz-adv-x="537"
         d="M415 351Q405 400 373 427T287 454Q241 454 210 437T161 392T134 328T126 252Q126 216 134 182T161 122T207 79T277 63Q339 63 375 96T419 189H506Q492 94 434 41T278 -12Q219 -12 174 7T98 62T52 145T36 252Q36 310 51 360T96 448T172 507T280 529Q324 529 362 519T431 486T479 431T503 351H415ZM329 732H438L307 589H243L329 732Z"
         id="glyph122425" /><glyph
         unicode="Ĉ"
         horiz-adv-x="722"
         d="M580 499Q572 537 554 565T510 613T450 641T380 651Q316 651 271 627T196 563T152 470T138 362Q138 301 152 247T195 152T271 87T381 63Q428 63 464 78T527 121T569 187T587 269H682Q668 135 589 59T373 -17Q290 -17 228 12T125 91T64 209T43 355Q43 433 65 501T129 621T235 701T381 731Q437 731 487 716T576 672T641 600T675 499H580ZM339 922H432L536 779H452L383 875L313 779H236L339 922Z"
         id="glyph122427" /><glyph
         unicode="ĉ"
         horiz-adv-x="537"
         d="M415 351Q405 400 373 427T287 454Q241 454 210 437T161 392T134 328T126 252Q126 216 134 182T161 122T207 79T277 63Q339 63 375 96T419 189H506Q492 94 434 41T278 -12Q219 -12 174 7T98 62T52 145T36 252Q36 310 51 360T96 448T172 507T280 529Q324 529 362 519T431 486T479 431T503 351H415ZM239 732H332L436 589H352L283 685L213 589H136L239 732Z"
         id="glyph122429" /><glyph
         unicode="Ċ"
         horiz-adv-x="722"
         d="M580 499Q572 537 554 565T510 613T450 641T380 651Q316 651 271 627T196 563T152 470T138 362Q138 301 152 247T195 152T271 87T381 63Q428 63 464 78T527 121T569 187T587 269H682Q668 135 589 59T373 -17Q290 -17 228 12T125 91T64 209T43 355Q43 433 65 501T129 621T235 701T381 731Q437 731 487 716T576 672T641 600T675 499H580ZM422 794H332V898H422V794Z"
         id="glyph122431" /><glyph
         unicode="ċ"
         horiz-adv-x="537"
         d="M415 351Q405 400 373 427T287 454Q241 454 210 437T161 392T134 328T126 252Q126 216 134 182T161 122T207 79T277 63Q339 63 375 96T419 189H506Q492 94 434 41T278 -12Q219 -12 174 7T98 62T52 145T36 252Q36 310 51 360T96 448T172 507T280 529Q324 529 362 519T431 486T479 431T503 351H415ZM326 604H236V708H326V604Z"
         id="glyph122433" /><glyph
         unicode="Č"
         horiz-adv-x="722"
         d="M580 499Q572 537 554 565T510 613T450 641T380 651Q316 651 271 627T196 563T152 470T138 362Q138 301 152 247T195 152T271 87T381 63Q428 63 464 78T527 121T569 187T587 269H682Q668 135 589 59T373 -17Q290 -17 228 12T125 91T64 209T43 355Q43 433 65 501T129 621T235 701T381 731Q437 731 487 716T576 672T641 600T675 499H580ZM424 779H331L227 922H311L380 826L450 922H527L424 779Z"
         id="glyph122435" /><glyph
         unicode="č"
         horiz-adv-x="537"
         d="M415 351Q405 400 373 427T287 454Q241 454 210 437T161 392T134 328T126 252Q126 216 134 182T161 122T207 79T277 63Q339 63 375 96T419 189H506Q492 94 434 41T278 -12Q219 -12 174 7T98 62T52 145T36 252Q36 310 51 360T96 448T172 507T280 529Q324 529 362 519T431 486T479 431T503 351H415ZM323 589H230L126 732H210L279 636L349 732H426L323 589Z"
         id="glyph122437" /><glyph
         unicode="Ď"
         horiz-adv-x="704"
         d="M173 80H331Q347 80 371 82T422 94T475 122T523 171T557 248T571 361Q571 425 559 475T518 561T444 615T333 634H173V80ZM78 714H323Q488 714 577 630T666 374Q666 284 646 215T584 98T477 25T323 0H78V714ZM364 779H271L167 922H251L320 826L390 922H467L364 779Z"
         id="glyph122439" /><glyph
         unicode="ď"
         horiz-adv-x="653"
         d="M126 254Q126 218 135 184T164 122T214 79T286 63Q329 63 359 80T408 124T435 187T444 258Q444 296 435 331T407 394T356 437T281 454Q237 454 208 437T160 392T134 328T126 254ZM526 0H441V70H439Q418 27 373 8T274 -12Q214 -12 170 10T96 69T51 156T36 260Q36 315 50 363T94 449T168 507T272 529Q292 529 315 525T361 512T404 487T439 448H441V714H526V0ZM602 714H711L636 571H576L602 714Z"
         id="glyph122441" /><glyph
         unicode="Đ"
         horiz-adv-x="704"
         d="M173 407H387V339H173V80H331Q347 80 371 82T422 94T475 122T523 171T557 248T571 361Q571 425 559 475T518 561T444 615T333 634H173V407ZM78 339H8V407H78V714H323Q488 714 577 630T666 374Q666 284 646 215T584 98T477 25T323 0H78V339Z"
         id="glyph122443" /><glyph
         unicode="đ"
         horiz-adv-x="603"
         d="M271 638H441V714H526V638H612V583H526V0H441V70H439Q418 27 373 8T274 -12Q214 -12 170 10T96 69T51 156T36 260Q36 315 50 363T94 449T168 507T272 529Q292 529 315 525T361 512T404 487T439 448H441V583H271V638ZM126 254Q126 218 135 184T164 122T214 79T286 63Q329 63 359 80T408 124T435 187T444 258Q444 296 435 331T407 394T356 437T281 454Q237 454 208 437T160 392T134 328T126 254Z"
         id="glyph122445" /><glyph
         unicode="Ē"
         horiz-adv-x="611"
         d="M78 714H571V634H173V407H544V327H173V80H574V0H78V714ZM158 872H499V817H158V872Z"
         id="glyph122447" /><glyph
         unicode="ē"
         horiz-adv-x="537"
         d="M423 308Q421 338 410 365T379 411T332 442T274 454Q241 454 215 443T169 411T139 365T126 308H423ZM505 164Q488 78 430 33T284 -12Q222 -12 177 8T100 65T54 151T36 260Q36 318 54 367T104 453T181 509T279 529Q348 529 393 501T466 428T504 332T513 233H126Q125 199 134 169T163 115T214 77T287 63Q340 63 375 88T421 164H505ZM112 682H453V627H112V682Z"
         id="glyph122449" /><glyph
         unicode="Ĕ"
         horiz-adv-x="611"
         d="M78 714H571V634H173V407H544V327H173V80H574V0H78V714ZM213 919Q237 836 325 836Q368 836 388 858T424 919H475Q464 855 424 818T317 781Q248 781 211 816T163 919H213Z"
         id="glyph122451" /><glyph
         unicode="ĕ"
         horiz-adv-x="537"
         d="M423 308Q421 338 410 365T379 411T332 442T274 454Q241 454 215 443T169 411T139 365T126 308H423ZM505 164Q488 78 430 33T284 -12Q222 -12 177 8T100 65T54 151T36 260Q36 318 54 367T104 453T181 509T279 529Q348 529 393 501T466 428T504 332T513 233H126Q125 199 134 169T163 115T214 77T287 63Q340 63 375 88T421 164H505ZM174 729Q198 646 286 646Q329 646 349 668T385 729H436Q425 665 385 628T278 591Q209 591 172 626T124 729H174Z"
         id="glyph122453" /><glyph
         unicode="Ė"
         horiz-adv-x="611"
         d="M78 714H571V634H173V407H544V327H173V80H574V0H78V714ZM370 794H280V898H370V794Z"
         id="glyph122455" /><glyph
         unicode="ė"
         horiz-adv-x="537"
         d="M423 308Q421 338 410 365T379 411T332 442T274 454Q241 454 215 443T169 411T139 365T126 308H423ZM505 164Q488 78 430 33T284 -12Q222 -12 177 8T100 65T54 151T36 260Q36 318 54 367T104 453T181 509T279 529Q348 529 393 501T466 428T504 332T513 233H126Q125 199 134 169T163 115T214 77T287 63Q340 63 375 88T421 164H505ZM325 604H235V708H325V604Z"
         id="glyph122457" /><glyph
         unicode="Ę"
         horiz-adv-x="611"
         d="M526 0Q500 -22 484 -38T459 -68T446 -95T442 -118Q442 -134 451 -147T480 -160Q503 -160 517 -152T542 -130L574 -148Q554 -183 526 -196T466 -210Q457 -210 442 -209T411 -199T385 -175T374 -128Q374 -121 377 -109T393 -79T427 -41T486 0H78V714H571V634H173V407H544V327H173V80H574V0H526Z"
         id="glyph122459" /><glyph
         unicode="ę"
         horiz-adv-x="537"
         d="M505 164Q488 78 430 33Q382 -4 313 -10Q296 -26 284 -38Q268 -54 259 -68T246 -95T242 -118Q242 -134 251 -147T280 -160Q303 -160 317 -152T342 -130L374 -148Q354 -183 326 -196T266 -210Q257 -210 242 -209T211 -199T185 -175T174 -128Q174 -121 177 -109T193 -79T227 -40Q243 -26 266 -11Q215 -9 176 8Q131 29 100 65T54 151T36 260Q36 318 54 367T104 453T181 509T279 529Q348 529 393 501T466 428T504 332T513 233H126Q125 199 134 169T163 115T214 77T287 63Q340 63 375 88T421 164H505ZM423 308Q421 338 410 365T379 411T332 442T274 454Q241 454 215 443T169 411T139 365T126 308H423Z"
         id="glyph122461" /><glyph
         unicode="Ě"
         horiz-adv-x="611"
         d="M78 714H571V634H173V407H544V327H173V80H574V0H78V714ZM370 779H277L173 922H257L326 826L396 922H473L370 779Z"
         id="glyph122463" /><glyph
         unicode="ě"
         horiz-adv-x="537"
         d="M423 308Q421 338 410 365T379 411T332 442T274 454Q241 454 215 443T169 411T139 365T126 308H423ZM505 164Q488 78 430 33T284 -12Q222 -12 177 8T100 65T54 151T36 260Q36 318 54 367T104 453T181 509T279 529Q348 529 393 501T466 428T504 332T513 233H126Q125 199 134 169T163 115T214 77T287 63Q340 63 375 88T421 164H505ZM323 589H230L126 732H210L279 636L349 732H426L323 589Z"
         id="glyph122465" /><glyph
         unicode="Ĝ"
         horiz-adv-x="759"
         d="M612 89Q591 61 565 41T508 8T446 -11T383 -17Q303 -17 240 13T133 93T66 208T43 343Q43 421 64 491T128 615T234 699T383 731Q441 731 492 718T584 675T652 602T690 494H595Q588 534 569 564T522 613T459 641T383 651Q318 651 272 625T196 557T152 460T138 348Q138 292 154 241T201 150T277 87T383 63Q438 63 481 81T555 130T599 204T612 296H384V376H697V0H637L612 89ZM346 922H439L543 779H459L390 875L320 779H243L346 922Z"
         id="glyph122467" /><glyph
         unicode="ĝ"
         horiz-adv-x="574"
         d="M510 44Q510 -83 452 -146T270 -210Q234 -210 197 -202T129 -176T78 -129T56 -58H141Q142 -81 155 -97T188 -123T231 -137T275 -142Q317 -142 346 -128T394 -88T421 -26T430 54V88H428Q417 64 400 47T362 18T316 0T267 -6Q209 -6 166 15T94 72T51 155T36 256Q36 302 48 350T88 438T162 503T275 529Q324 529 365 508T429 443H430V517H510V44ZM272 69Q314 69 343 86T391 132T417 197T426 269Q426 303 418 336T393 395T347 438T279 454Q238 454 209 439T162 397T135 337T126 266Q126 231 133 196T157 133T202 87T272 69ZM250 732H343L447 589H363L294 685L224 589H147L250 732Z"
         id="glyph122469" /><glyph
         unicode="Ğ"
         horiz-adv-x="759"
         d="M612 89Q591 61 565 41T508 8T446 -11T383 -17Q303 -17 240 13T133 93T66 208T43 343Q43 421 64 491T128 615T234 699T383 731Q441 731 492 718T584 675T652 602T690 494H595Q588 534 569 564T522 613T459 641T383 651Q318 651 272 625T196 557T152 460T138 348Q138 292 154 241T201 150T277 87T383 63Q438 63 481 81T555 130T599 204T612 296H384V376H697V0H637L612 89ZM275 919Q299 836 387 836Q430 836 450 858T486 919H537Q526 855 486 818T379 781Q310 781 273 816T225 919H275Z"
         id="glyph122471" /><glyph
         unicode="ğ"
         horiz-adv-x="574"
         d="M510 44Q510 -83 452 -146T270 -210Q234 -210 197 -202T129 -176T78 -129T56 -58H141Q142 -81 155 -97T188 -123T231 -137T275 -142Q317 -142 346 -128T394 -88T421 -26T430 54V88H428Q417 64 400 47T362 18T316 0T267 -6Q209 -6 166 15T94 72T51 155T36 256Q36 302 48 350T88 438T162 503T275 529Q324 529 365 508T429 443H430V517H510V44ZM272 69Q314 69 343 86T391 132T417 197T426 269Q426 303 418 336T393 395T347 438T279 454Q238 454 209 439T162 397T135 337T126 266Q126 231 133 196T157 133T202 87T272 69ZM180 729Q204 646 292 646Q335 646 355 668T391 729H442Q431 665 391 628T284 591Q215 591 178 626T130 729H180Z"
         id="glyph122473" /><glyph
         unicode="Ġ"
         horiz-adv-x="759"
         d="M612 89Q591 61 565 41T508 8T446 -11T383 -17Q303 -17 240 13T133 93T66 208T43 343Q43 421 64 491T128 615T234 699T383 731Q441 731 492 718T584 675T652 602T690 494H595Q588 534 569 564T522 613T459 641T383 651Q318 651 272 625T196 557T152 460T138 348Q138 292 154 241T201 150T277 87T383 63Q438 63 481 81T555 130T599 204T612 296H384V376H697V0H637L612 89ZM429 794H339V898H429V794Z"
         id="glyph122475" /><glyph
         unicode="ġ"
         horiz-adv-x="574"
         d="M510 44Q510 -83 452 -146T270 -210Q234 -210 197 -202T129 -176T78 -129T56 -58H141Q142 -81 155 -97T188 -123T231 -137T275 -142Q317 -142 346 -128T394 -88T421 -26T430 54V88H428Q417 64 400 47T362 18T316 0T267 -6Q209 -6 166 15T94 72T51 155T36 256Q36 302 48 350T88 438T162 503T275 529Q324 529 365 508T429 443H430V517H510V44ZM272 69Q314 69 343 86T391 132T417 197T426 269Q426 303 418 336T393 395T347 438T279 454Q238 454 209 439T162 397T135 337T126 266Q126 231 133 196T157 133T202 87T272 69ZM332 604H242V708H332V604Z"
         id="glyph122477" /><glyph
         unicode="Ģ"
         horiz-adv-x="759"
         d="M612 89Q591 61 565 41T508 8T446 -11T383 -17Q303 -17 240 13T133 93T66 208T43 343Q43 421 64 491T128 615T234 699T383 731Q441 731 492 718T584 675T652 602T690 494H595Q588 534 569 564T522 613T459 641T383 651Q318 651 272 625T196 557T152 460T138 348Q138 292 154 241T201 150T277 87T383 63Q438 63 481 81T555 130T599 204T612 296H384V376H697V0H637L612 89ZM321 -50H432V-127Q432 -170 405 -190T333 -210V-175Q355 -169 362 -163T371 -151T373 -138H321V-50Z"
         id="glyph122479" /><glyph
         unicode="ģ"
         horiz-adv-x="574"
         d="M510 44Q510 -83 452 -146T270 -210Q234 -210 197 -202T129 -176T78 -129T56 -58H141Q142 -81 155 -97T188 -123T231 -137T275 -142Q317 -142 346 -128T394 -88T421 -26T430 54V88H428Q417 64 400 47T362 18T316 0T267 -6Q209 -6 166 15T94 72T51 155T36 256Q36 302 48 350T88 438T162 503T275 529Q324 529 365 508T429 443H430V517H510V44ZM272 69Q314 69 343 86T391 132T417 197T426 269Q426 303 418 336T393 395T347 438T279 454Q238 454 209 439T162 397T135 337T126 266Q126 231 133 196T157 133T202 87T272 69ZM341 626H230V703Q230 746 257 766T329 786V751Q307 745 300 739T291 727T289 714H341V626Z"
         id="glyph122481" /><glyph
         unicode="Ĥ"
         horiz-adv-x="722"
         d="M78 714H173V407H549V714H644V0H549V327H173V0H78V714ZM312 922H405L509 779H425L356 875L286 779H209L312 922Z"
         id="glyph122483" /><glyph
         unicode="ĥ"
         horiz-adv-x="556"
         d="M64 714H149V441H151Q161 464 179 481T220 508T266 524T314 529Q365 529 399 515T454 476T483 417T492 340V0H407V350Q407 398 379 426T302 454Q263 454 235 442T187 408T159 357T149 292V0H64V714ZM231 922H324L428 779H344L275 875L205 779H128L231 922Z"
         id="glyph122485" /><glyph
         unicode="Ħ"
         horiz-adv-x="722"
         d="M78 714H173V517H549V714H644V0H549V317H173V0H78V714ZM549 397V462H173V397H549Z"
         id="glyph122487" /><glyph
         unicode="ħ"
         horiz-adv-x="566"
         d="M-10 638H74V714H159V638H301V583H159V441H161Q171 464 189 481T230 508T276 524T324 529Q375 529 409 515T464 476T493 417T502 340V0H417V350Q417 398 389 426T312 454Q273 454 245 442T197 408T169 357T159 292V0H74V583H-10V638Z"
         id="glyph122489" /><glyph
         unicode="Ĩ"
         horiz-adv-x="259"
         d="M82 714H177V0H82V714ZM302 907Q296 863 270 828Q257 812 241 804T201 796Q180 796 162 802T126 816Q108 823 91 829T60 835Q52 835 44 832T29 824T20 812T11 793H-41Q-36 817 -28 836T-7 870T23 894T65 903Q85 903 103 897T138 883T171 869T204 863Q222 863 233 875T250 907H302Z"
         id="glyph122491" /><glyph
         unicode="ĩ"
         horiz-adv-x="222"
         d="M69 0V517H154V0H69ZM285 717Q279 673 253 638Q240 622 224 614T184 606Q163 606 145 612T109 626Q91 633 74 639T43 645Q35 645 27 642T12 634T3 622T-6 603H-58Q-53 627 -45 646T-24 680T6 704T48 713Q68 713 86 707T121 693T154 679T187 673Q205 673 216 685T233 717H285Z"
         id="glyph122493" /><glyph
         unicode="Ī"
         horiz-adv-x="259"
         d="M82 714H177V0H82V714ZM-40 872H301V817H-40V872Z"
         id="glyph122495" /><glyph
         unicode="ī"
         horiz-adv-x="222"
         d="M69 0V517H154V0H69ZM-58 682H283V627H-58V682Z"
         id="glyph122497" /><glyph
         unicode="Į"
         horiz-adv-x="259"
         d="M82 714H177V0Q154 -22 140 -38T117 -68T105 -95T102 -118Q102 -137 111 -148T136 -160Q155 -160 168 -152T192 -130L220 -148Q201 -182 179 -196T129 -210Q121 -210 107 -209T77 -199T51 -175T40 -128Q40 -121 43 -108T57 -78T88 -41T141 0H82V714Z"
         id="glyph122499" /><glyph
         unicode="į"
         horiz-adv-x="222"
         d="M154 0Q131 -22 117 -38T94 -68T82 -95T79 -118Q79 -134 87 -147T113 -160Q133 -160 146 -152T169 -130L197 -148Q179 -183 154 -196T100 -210Q92 -210 78 -209T51 -199T27 -175T17 -128Q17 -121 20 -109T34 -79T65 -41T118 0H69V517H154V0ZM154 610H69V714H154V610Z"
         id="glyph122501" /><glyph
         unicode="İ"
         horiz-adv-x="259"
         d="M82 714H177V0H82V714ZM175 794H85V898H175V794Z"
         id="glyph122503" /><glyph
         unicode="ı"
         horiz-adv-x="222"
         d="M69 0V517H154V0H69Z"
         id="glyph122505" /><glyph
         unicode="Ĳ"
         horiz-adv-x="780"
         d="M82 714H177V0H82V714ZM702 178Q702 142 692 107T657 45T592 0T491 -17Q391 -17 337 36T283 191V235H378V205Q378 174 383 148T400 103T435 74T493 63Q558 63 582 98T607 192V714H702V178Z"
         id="glyph122507" /><glyph
         unicode="ĳ"
         horiz-adv-x="430"
         d="M154 610H69V714H154V610ZM69 517H154V0H69V517ZM362 610H277V714H362V610ZM362 -66Q362 -135 329 -166T238 -198Q227 -198 216 -197T194 -194V-121Q203 -123 211 -123Q220 -123 229 -123Q257 -123 267 -108T277 -52V517H362V-66Z"
         id="glyph122509" /><glyph
         unicode="Ĵ"
         horiz-adv-x="519"
         d="M441 178Q441 142 431 107T396 45T331 0T230 -17Q130 -17 76 36T22 191V235H117V205Q117 174 122 148T139 103T174 74T232 63Q297 63 321 98T346 192V714H441V178ZM344 922H437L541 779H457L388 875L318 779H241L344 922Z"
         id="glyph122511" /><glyph
         unicode="ĵ"
         horiz-adv-x="222"
         d="M154 -66Q154 -135 121 -166T30 -198Q19 -198 8 -197T-14 -194V-121Q-5 -123 3 -123Q12 -123 21 -123Q49 -123 59 -108T69 -52V517H154V-66ZM64 732H157L261 589H177L108 685L38 589H-39L64 732Z"
         id="glyph122513" /><glyph
         unicode="Ķ"
         horiz-adv-x="667"
         d="M78 714H173V358L535 714H658L357 426L670 0H550L292 361L173 250V0H78V714ZM286 -50H397V-127Q397 -170 370 -190T298 -210V-175Q320 -169 327 -163T336 -151T338 -138H286V-50Z"
         id="glyph122515" /><glyph
         unicode="ķ"
         horiz-adv-x="519"
         d="M69 714H154V291L390 517H504L299 329L519 0H411L234 270L154 196V0H69V714ZM217 -50H328V-127Q328 -170 301 -190T229 -210V-175Q251 -169 258 -163T267 -151T269 -138H217V-50Z"
         id="glyph122517" /><glyph
         unicode="Ĺ"
         horiz-adv-x="556"
         d="M78 714H173V80H551V0H78V714ZM179 922H288L157 779H93L179 922Z"
         id="glyph122519" /><glyph
         unicode="ĺ"
         horiz-adv-x="222"
         d="M69 714H154V0H69V714ZM156 922H265L134 779H70L156 922Z"
         id="glyph122521" /><glyph
         unicode="Ļ"
         horiz-adv-x="556"
         d="M78 714H173V80H551V0H78V714ZM243 -50H354V-127Q354 -170 327 -190T255 -210V-175Q277 -169 284 -163T293 -151T295 -138H243V-50Z"
         id="glyph122523" /><glyph
         unicode="ļ"
         horiz-adv-x="222"
         d="M69 714H154V0H69V714ZM58 -50H169V-127Q169 -170 142 -190T70 -210V-175Q92 -169 99 -163T108 -151T110 -138H58V-50Z"
         id="glyph122525" /><glyph
         unicode="Ľ"
         horiz-adv-x="556"
         d="M78 714H173V80H551V0H78V714ZM306 714H415L340 571H280L306 714Z"
         id="glyph122527" /><glyph
         unicode="ľ"
         horiz-adv-x="281"
         d="M69 714H154V0H69V714ZM230 714H339L264 571H204L230 714Z"
         id="glyph122529" /><glyph
         unicode="Ŀ"
         horiz-adv-x="556"
         d="M78 714H173V80H551V0H78V714ZM399 415H309V519H399V415Z"
         id="glyph122531" /><glyph
         unicode="ŀ"
         horiz-adv-x="348"
         d="M69 714H154V0H69V714ZM310 415H220V519H310V415Z"
         id="glyph122533" /><glyph
         unicode="Ł"
         horiz-adv-x="556"
         d="M78 240L-1 184V260L78 316V714H173V384L401 544V468L173 308V80H551V0H78V240Z"
         id="glyph122535" /><glyph
         unicode="ł"
         horiz-adv-x="222"
         d="M69 321L-1 266V337L69 393V714H154V460L224 516V445L154 389V0H69V321Z"
         id="glyph122537" /><glyph
         unicode="Ń"
         horiz-adv-x="722"
         d="M77 714H178L554 135H556V714H646V0H542L169 573H167V0H77V714ZM408 922H517L386 779H322L408 922Z"
         id="glyph122539" /><glyph
         unicode="ń"
         horiz-adv-x="556"
         d="M64 517H144V435H146Q173 483 215 506T314 529Q365 529 399 515T454 476T483 417T492 340V0H407V350Q407 398 379 426T302 454Q263 454 235 442T187 408T159 357T149 292V0H64V517ZM328 732H437L306 589H242L328 732Z"
         id="glyph122541" /><glyph
         unicode="Ņ"
         horiz-adv-x="722"
         d="M77 714H178L554 135H556V714H646V0H542L169 573H167V0H77V714ZM302 -50H413V-127Q413 -170 386 -190T314 -210V-175Q336 -169 343 -163T352 -151T354 -138H302V-50Z"
         id="glyph122543" /><glyph
         unicode="ņ"
         horiz-adv-x="556"
         d="M64 517H144V435H146Q173 483 215 506T314 529Q365 529 399 515T454 476T483 417T492 340V0H407V350Q407 398 379 426T302 454Q263 454 235 442T187 408T159 357T149 292V0H64V517ZM221 -50H332V-127Q332 -170 305 -190T233 -210V-175Q255 -169 262 -163T271 -151T273 -138H221V-50Z"
         id="glyph122545" /><glyph
         unicode="Ň"
         horiz-adv-x="722"
         d="M77 714H178L554 135H556V714H646V0H542L169 573H167V0H77V714ZM406 779H313L209 922H293L362 826L432 922H509L406 779Z"
         id="glyph122547" /><glyph
         unicode="ň"
         horiz-adv-x="556"
         d="M64 517H144V435H146Q173 483 215 506T314 529Q365 529 399 515T454 476T483 417T492 340V0H407V350Q407 398 379 426T302 454Q263 454 235 442T187 408T159 357T149 292V0H64V517ZM326 589H233L129 732H213L282 636L352 732H429L326 589Z"
         id="glyph122549" /><glyph
         unicode="ŉ"
         horiz-adv-x="578"
         d="M86 517H166V435H168Q195 483 237 506T336 529Q387 529 421 515T476 476T505 417T514 340V0H429V350Q429 398 401 426T324 454Q285 454 257 442T209 408T181 357T171 292V0H86V517ZM16 802H127V725Q127 682 100 662T28 642V677Q50 683 57 689T66 701T68 714H16V802Z"
         id="glyph122551" /><glyph
         unicode="Ō"
         horiz-adv-x="760"
         d="M133 357Q133 303 147 251T191 156T268 89T380 63Q445 63 492 88T569 156T613 250T627 357Q627 411 613 463T569 558T492 625T380 651Q315 651 268 626T191 558T147 464T133 357ZM38 357Q38 430 59 497T124 617T231 700T380 731Q465 731 529 700T636 617T700 498T722 357Q722 284 701 217T636 97T529 14T380 -17Q295 -17 231 14T124 97T60 216T38 357ZM211 872H552V817H211V872Z"
         id="glyph122553" /><glyph
         unicode="ō"
         horiz-adv-x="574"
         d="M126 258Q126 211 138 175T173 114T224 76T287 63Q320 63 349 76T401 113T435 174T448 258Q448 305 436 341T401 403T350 441T287 454Q254 454 225 441T173 403T139 342T126 258ZM36 258Q36 315 52 364T100 450T178 508T287 529Q348 529 395 508T474 451T522 365T538 258Q538 201 522 152T474 67T395 9T287 -12Q225 -12 179 9T100 66T52 152T36 258ZM121 682H462V627H121V682Z"
         id="glyph122555" /><glyph
         unicode="Ŏ"
         horiz-adv-x="760"
         d="M133 357Q133 303 147 251T191 156T268 89T380 63Q445 63 492 88T569 156T613 250T627 357Q627 411 613 463T569 558T492 625T380 651Q315 651 268 626T191 558T147 464T133 357ZM38 357Q38 430 59 497T124 617T231 700T380 731Q465 731 529 700T636 617T700 498T722 357Q722 284 701 217T636 97T529 14T380 -17Q295 -17 231 14T124 97T60 216T38 357ZM275 919Q299 836 387 836Q430 836 450 858T486 919H537Q526 855 486 818T379 781Q310 781 273 816T225 919H275Z"
         id="glyph122557" /><glyph
         unicode="ŏ"
         horiz-adv-x="574"
         d="M126 258Q126 211 138 175T173 114T224 76T287 63Q320 63 349 76T401 113T435 174T448 258Q448 305 436 341T401 403T350 441T287 454Q254 454 225 441T173 403T139 342T126 258ZM36 258Q36 315 52 364T100 450T178 508T287 529Q348 529 395 508T474 451T522 365T538 258Q538 201 522 152T474 67T395 9T287 -12Q225 -12 179 9T100 66T52 152T36 258ZM182 729Q206 646 294 646Q337 646 357 668T393 729H444Q433 665 393 628T286 591Q217 591 180 626T132 729H182Z"
         id="glyph122559" /><glyph
         unicode="Ő"
         horiz-adv-x="760"
         d="M133 357Q133 303 147 251T191 156T268 89T380 63Q445 63 492 88T569 156T613 250T627 357Q627 411 613 463T569 558T492 625T380 651Q315 651 268 626T191 558T147 464T133 357ZM38 357Q38 430 59 497T124 617T231 700T380 731Q465 731 529 700T636 617T700 498T722 357Q722 284 701 217T636 97T529 14T380 -17Q295 -17 231 14T124 97T60 216T38 357ZM505 922H610L490 779H424L505 922ZM349 922H454L334 779H268L349 922Z"
         id="glyph122561" /><glyph
         unicode="ő"
         horiz-adv-x="574"
         d="M126 258Q126 211 138 175T173 114T224 76T287 63Q320 63 349 76T401 113T435 174T448 258Q448 305 436 341T401 403T350 441T287 454Q254 454 225 441T173 403T139 342T126 258ZM36 258Q36 315 52 364T100 450T178 508T287 529Q348 529 395 508T474 451T522 365T538 258Q538 201 522 152T474 67T395 9T287 -12Q225 -12 179 9T100 66T52 152T36 258ZM408 732H513L393 589H327L408 732ZM252 732H357L237 589H171L252 732Z"
         id="glyph122563" /><glyph
         unicode="Œ"
         horiz-adv-x="1074"
         d="M551 69H549Q536 48 516 32T472 5T420 -11T365 -17Q286 -17 225 11T123 90T60 209T38 355Q38 436 60 504T126 623T231 702T373 731Q398 731 424 727T475 713T518 689T549 655H551V714H1028V634H646V407H996V327H646V80H1034V0H551V69ZM372 63Q409 63 442 73T499 102T537 147T551 204V505Q551 521 549 539T536 574Q516 605 474 628T374 651Q313 651 268 627T193 562T148 466T133 351Q133 291 148 239T194 147T268 86T372 63Z"
         id="glyph122565" /><glyph
         unicode="œ"
         horiz-adv-x="891"
         d="M415 260Q415 296 409 330T387 392T343 437T271 454Q230 454 203 436T158 389T134 323T126 248Q126 215 134 182T159 123T204 80T271 63Q314 63 341 80T385 126T408 190T415 260ZM774 308Q774 374 737 414T633 454Q566 454 527 413T489 308H774ZM489 233Q488 199 497 169T524 115T571 77T638 63Q689 63 726 89T778 164H859Q808 -12 638 -12Q573 -12 524 11T450 90Q426 34 378 11T271 -12Q210 -12 166 9T93 68T50 154T36 259Q36 316 50 365T93 450T167 508T271 529Q331 529 377 511T450 438Q477 484 527 506T633 529Q697 529 742 506T816 442T855 348T864 233H489Z"
         id="glyph122567" /><glyph
         unicode="Ŕ"
         horiz-adv-x="685"
         d="M78 714H414Q515 714 573 664T631 527Q631 462 602 413T507 346V344Q538 338 557 324T589 291T606 247T614 197Q616 171 617 144T622 91T633 42T656 0H550Q540 11 537 30T532 72T530 123T524 176Q520 202 514 225T495 266T461 294T405 305H173V0H78V714ZM371 385Q404 385 434 390T486 409T522 448T536 512Q536 565 506 599T409 634H173V385H371ZM370 922H479L348 779H284L370 922Z"
         id="glyph122569" /><glyph
         unicode="ŕ"
         horiz-adv-x="333"
         d="M61 517H141V408H143Q174 471 219 501T333 529V439Q282 439 246 425T188 384T156 318T146 230V0H61V517ZM166 732H275L144 589H80L166 732Z"
         id="glyph122571" /><glyph
         unicode="Ŗ"
         horiz-adv-x="685"
         d="M78 714H414Q515 714 573 664T631 527Q631 462 602 413T507 346V344Q538 338 557 324T589 291T606 247T614 197Q616 171 617 144T622 91T633 42T656 0H550Q540 11 537 30T532 72T530 123T524 176Q520 202 514 225T495 266T461 294T405 305H173V0H78V714ZM371 385Q404 385 434 390T486 409T522 448T536 512Q536 565 506 599T409 634H173V385H371ZM295 -50H406V-127Q406 -170 379 -190T307 -210V-175Q329 -169 336 -163T345 -151T347 -138H295V-50Z"
         id="glyph122573" /><glyph
         unicode="ŗ"
         horiz-adv-x="333"
         d="M61 517H141V408H143Q174 471 219 501T333 529V439Q282 439 246 425T188 384T156 318T146 230V0H61V517ZM50 -50H161V-127Q161 -170 134 -190T62 -210V-175Q84 -169 91 -163T100 -151T102 -138H50V-50Z"
         id="glyph122575" /><glyph
         unicode="Ř"
         horiz-adv-x="685"
         d="M78 714H414Q515 714 573 664T631 527Q631 462 602 413T507 346V344Q538 338 557 324T589 291T606 247T614 197Q616 171 617 144T622 91T633 42T656 0H550Q540 11 537 30T532 72T530 123T524 176Q520 202 514 225T495 266T461 294T405 305H173V0H78V714ZM371 385Q404 385 434 390T486 409T522 448T536 512Q536 565 506 599T409 634H173V385H371ZM388 779H295L191 922H275L344 826L414 922H491L388 779Z"
         id="glyph122577" /><glyph
         unicode="ř"
         horiz-adv-x="333"
         d="M61 517H141V408H143Q174 471 219 501T333 529V439Q282 439 246 425T188 384T156 318T146 230V0H61V517ZM240 589H147L43 732H127L196 636L266 732H343L240 589Z"
         id="glyph122579" /><glyph
         unicode="Ś"
         horiz-adv-x="648"
         d="M491 505Q483 582 436 616T314 651Q284 651 255 645T204 625T168 588T154 529Q154 496 173 476T225 442T299 421T383 402T467 379T540 342T591 284T611 196Q611 139 586 99T520 33T431 -5T332 -17Q272 -17 219 -2T125 44T61 122T37 235H127Q127 190 144 158T190 104T256 73T335 63Q367 63 399 69T458 89T500 129T516 193Q516 230 497 253T445 290T372 314T288 333T204 354T131 388T79 441T59 522Q59 576 81 615T139 680T222 718T318 731Q373 731 420 718T502 677T558 607T581 505H491ZM367 922H476L345 779H281L367 922Z"
         id="glyph122581" /><glyph
         unicode="ś"
         horiz-adv-x="500"
         d="M116 163Q117 134 129 115T160 85T204 68T255 63Q275 63 297 66T337 77T368 100T380 140Q380 165 366 180T328 206T274 222T211 236T149 253T95 279T57 320T42 382Q42 421 59 449T104 494T166 520T235 529Q278 529 315 522T381 496T427 446T447 367H362Q360 392 349 408T321 435T284 449T242 454Q223 454 204 451T168 441T142 420T132 388Q132 365 147 351T187 328T241 312T301 298Q333 291 363 281T417 255T455 213T470 151Q470 105 451 74T400 23T329 -4T250 -12Q206 -12 168 -3T99 27T51 81T31 163H116ZM290 732H399L268 589H204L290 732Z"
         id="glyph122583" /><glyph
         unicode="Ŝ"
         horiz-adv-x="648"
         d="M491 505Q483 582 436 616T314 651Q284 651 255 645T204 625T168 588T154 529Q154 496 173 476T225 442T299 421T383 402T467 379T540 342T591 284T611 196Q611 139 586 99T520 33T431 -5T332 -17Q272 -17 219 -2T125 44T61 122T37 235H127Q127 190 144 158T190 104T256 73T335 63Q367 63 399 69T458 89T500 129T516 193Q516 230 497 253T445 290T372 314T288 333T204 354T131 388T79 441T59 522Q59 576 81 615T139 680T222 718T318 731Q373 731 420 718T502 677T558 607T581 505H491ZM278 922H371L475 779H391L322 875L252 779H175L278 922Z"
         id="glyph122585" /><glyph
         unicode="ŝ"
         horiz-adv-x="500"
         d="M116 163Q117 134 129 115T160 85T204 68T255 63Q275 63 297 66T337 77T368 100T380 140Q380 165 366 180T328 206T274 222T211 236T149 253T95 279T57 320T42 382Q42 421 59 449T104 494T166 520T235 529Q278 529 315 522T381 496T427 446T447 367H362Q360 392 349 408T321 435T284 449T242 454Q223 454 204 451T168 441T142 420T132 388Q132 365 147 351T187 328T241 312T301 298Q333 291 363 281T417 255T455 213T470 151Q470 105 451 74T400 23T329 -4T250 -12Q206 -12 168 -3T99 27T51 81T31 163H116ZM206 732H299L403 589H319L250 685L180 589H103L206 732Z"
         id="glyph122587" /><glyph
         unicode="Ş"
         horiz-adv-x="648"
         d="M217 -147Q229 -152 245 -156T278 -160Q288 -160 299 -159T319 -153T334 -144T340 -129Q340 -115 327 -107T293 -98Q281 -98 272 -100T252 -106L235 -78L284 -14Q250 -11 218 -2Q165 13 125 44T61 122T37 235H127Q127 190 144 158T190 104T256 73T335 63Q367 63 399 69T458 89T500 129T516 193Q516 230 497 253T445 290T372 314T288 333T204 354T131 388T79 441T59 522Q59 576 81 615T139 680T222 718T318 731Q373 731 420 718T502 677T558 607T581 505H491Q483 582 436 616T314 651Q284 651 255 645T204 625T168 588T154 529Q154 496 173 476T225 442T299 421T383 402T467 379T540 342T591 284T611 196Q611 139 586 99T520 33T431 -5T332 -17H324L296 -53L298 -55Q308 -48 331 -48Q347 -48 362 -52T389 -66T408 -89T415 -121Q415 -146 404 -163T374 -190T334 -205T291 -210Q267 -210 245 -205T199 -191L217 -147Z"
         id="glyph122589" /><glyph
         unicode="ş"
         horiz-adv-x="500"
         d="M146 -147Q158 -152 174 -156T207 -160Q217 -160 228 -159T248 -153T263 -144T269 -129Q269 -115 256 -107T222 -98Q210 -98 201 -100T181 -106L164 -78L216 -10Q191 -8 167 -2Q129 7 99 27T51 81T31 163H116Q117 134 129 115T160 85T204 68T255 63Q275 63 297 66T337 77T368 100T380 140Q380 165 366 180T328 206T274 222T211 236T149 253T95 279T57 320T42 382Q42 421 59 449T104 494T166 520T235 529Q278 529 315 522T381 496T427 446T447 367H362Q360 392 349 408T321 435T284 449T242 454Q223 454 204 451T168 441T142 420T132 388Q132 365 147 351T187 328T241 312T301 298Q333 291 363 281T417 255T455 213T470 151Q470 105 451 74T400 23T328 -4Q293 -11 257 -12L225 -53L227 -55Q237 -48 260 -48Q276 -48 291 -52T318 -66T337 -89T344 -121Q344 -146 333 -163T303 -190T263 -205T220 -210Q196 -210 174 -205T128 -191L146 -147Z"
         id="glyph122591" /><glyph
         unicode="Š"
         horiz-adv-x="648"
         d="M491 505Q483 582 436 616T314 651Q284 651 255 645T204 625T168 588T154 529Q154 496 173 476T225 442T299 421T383 402T467 379T540 342T591 284T611 196Q611 139 586 99T520 33T431 -5T332 -17Q272 -17 219 -2T125 44T61 122T37 235H127Q127 190 144 158T190 104T256 73T335 63Q367 63 399 69T458 89T500 129T516 193Q516 230 497 253T445 290T372 314T288 333T204 354T131 388T79 441T59 522Q59 576 81 615T139 680T222 718T318 731Q373 731 420 718T502 677T558 607T581 505H491ZM373 779H280L176 922H260L329 826L399 922H476L373 779Z"
         id="glyph122593" /><glyph
         unicode="š"
         horiz-adv-x="500"
         d="M116 163Q117 134 129 115T160 85T204 68T255 63Q275 63 297 66T337 77T368 100T380 140Q380 165 366 180T328 206T274 222T211 236T149 253T95 279T57 320T42 382Q42 421 59 449T104 494T166 520T235 529Q278 529 315 522T381 496T427 446T447 367H362Q360 392 349 408T321 435T284 449T242 454Q223 454 204 451T168 441T142 420T132 388Q132 365 147 351T187 328T241 312T301 298Q333 291 363 281T417 255T455 213T470 151Q470 105 451 74T400 23T329 -4T250 -12Q206 -12 168 -3T99 27T51 81T31 163H116ZM300 589H207L103 732H187L256 636L326 732H403L300 589Z"
         id="glyph122595" /><glyph
         unicode="Ţ"
         horiz-adv-x="574"
         d="M240 634H2V714H573V634H335V0H240V634ZM231 -50H342V-127Q342 -170 315 -190T243 -210V-175Q265 -169 272 -163T281 -151T283 -138H231V-50Z"
         id="glyph122597" /><glyph
         unicode="ţ"
         horiz-adv-x="315"
         d="M182 517H285V442H182V121Q182 106 184 97T194 83T213 77T246 75H285V0H220Q187 0 164 4T126 21T104 55T97 113V442H9V517H97V672H182V517ZM130 -50H241V-127Q241 -170 214 -190T142 -210V-175Q164 -169 171 -163T180 -151T182 -138H130V-50Z"
         id="glyph122599" /><glyph
         unicode="Ť"
         horiz-adv-x="574"
         d="M240 634H2V714H573V634H335V0H240V634ZM332 779H239L135 922H219L288 826L358 922H435L332 779Z"
         id="glyph122601" /><glyph
         unicode="ť"
         horiz-adv-x="363"
         d="M306 714H415L340 571H280L306 714ZM182 517H285V442H182V121Q182 106 184 97T194 83T213 77T246 75H285V0H220Q187 0 164 4T126 21T104 55T97 113V442H9V517H97V672H182V517Z"
         id="glyph122603" /><glyph
         unicode="Ŧ"
         horiz-adv-x="574"
         d="M98 486H240V634H2V714H573V634H335V486H479V431H335V0H240V431H98V486Z"
         id="glyph122605" /><glyph
         unicode="ŧ"
         horiz-adv-x="315"
         d="M-1 346H97V442H9V517H97V672H182V517H285V442H182V346H295V291H182V121Q182 106 184 97T194 83T213 77T246 75H285V0H220Q187 0 164 4T126 21T104 55T97 113V291H-1V346Z"
         id="glyph122607" /><glyph
         unicode="Ũ"
         horiz-adv-x="722"
         d="M648 258Q648 122 575 53T367 -17Q298 -17 244 -1T152 49T94 135T74 258V714H169V258Q169 163 220 113T367 63Q458 63 505 113T553 258V714H648V258ZM534 907Q528 863 502 828Q489 812 473 804T433 796Q412 796 394 802T358 816Q340 823 323 829T292 835Q284 835 276 832T261 824T252 812T243 793H191Q196 817 204 836T225 870T255 894T297 903Q317 903 335 897T370 883T403 869T436 863Q454 863 465 875T482 907H534Z"
         id="glyph122609" /><glyph
         unicode="ũ"
         horiz-adv-x="556"
         d="M492 0H412V82H410Q383 34 341 11T242 -12Q191 -12 157 2T102 41T73 100T64 177V517H149V167Q149 119 177 91T254 63Q293 63 321 75T369 109T397 160T407 225V517H492V0ZM450 717Q444 673 418 638Q405 622 389 614T349 606Q328 606 310 612T274 626Q256 633 239 639T208 645Q200 645 192 642T177 634T168 622T159 603H107Q112 627 120 646T141 680T171 704T213 713Q233 713 251 707T286 693T319 679T352 673Q370 673 381 685T398 717H450Z"
         id="glyph122611" /><glyph
         unicode="Ū"
         horiz-adv-x="722"
         d="M648 258Q648 122 575 53T367 -17Q298 -17 244 -1T152 49T94 135T74 258V714H169V258Q169 163 220 113T367 63Q458 63 505 113T553 258V714H648V258ZM192 872H533V817H192V872Z"
         id="glyph122613" /><glyph
         unicode="ū"
         horiz-adv-x="556"
         d="M492 0H412V82H410Q383 34 341 11T242 -12Q191 -12 157 2T102 41T73 100T64 177V517H149V167Q149 119 177 91T254 63Q293 63 321 75T369 109T397 160T407 225V517H492V0ZM112 682H453V627H112V682Z"
         id="glyph122615" /><glyph
         unicode="Ŭ"
         horiz-adv-x="722"
         d="M648 258Q648 122 575 53T367 -17Q298 -17 244 -1T152 49T94 135T74 258V714H169V258Q169 163 220 113T367 63Q458 63 505 113T553 258V714H648V258ZM250 919Q274 836 362 836Q405 836 425 858T461 919H512Q501 855 461 818T354 781Q285 781 248 816T200 919H250Z"
         id="glyph122617" /><glyph
         unicode="ŭ"
         horiz-adv-x="556"
         d="M492 0H412V82H410Q383 34 341 11T242 -12Q191 -12 157 2T102 41T73 100T64 177V517H149V167Q149 119 177 91T254 63Q293 63 321 75T369 109T397 160T407 225V517H492V0ZM172 729Q196 646 284 646Q327 646 347 668T383 729H434Q423 665 383 628T276 591Q207 591 170 626T122 729H172Z"
         id="glyph122619" /><glyph
         unicode="Ů"
         horiz-adv-x="722"
         d="M648 258Q648 122 575 53T367 -17Q298 -17 244 -1T152 49T94 135T74 258V714H169V258Q169 163 220 113T367 63Q458 63 505 113T553 258V714H648V258ZM247 861Q247 884 256 904T280 940T316 964T360 973Q383 973 403 965T439 941T464 905T473 861Q473 838 464 818T440 782T404 758T360 749Q337 749 317 757T281 781T256 817T247 861ZM293 860Q293 831 312 812T360 792Q389 792 408 811T427 860Q427 889 408 908T360 928Q331 928 312 909T293 860Z"
         id="glyph122621" /><glyph
         unicode="ů"
         horiz-adv-x="556"
         d="M492 0H412V82H410Q383 34 341 11T242 -12Q191 -12 157 2T102 41T73 100T64 177V517H149V167Q149 119 177 91T254 63Q293 63 321 75T369 109T397 160T407 225V517H492V0ZM165 681Q165 704 174 724T198 760T234 784T278 793Q301 793 321 785T357 761T382 725T391 681Q391 658 382 638T358 602T322 578T278 569Q255 569 235 577T199 601T174 637T165 681ZM211 680Q211 651 230 632T278 612Q307 612 326 631T345 680Q345 709 326 728T278 748Q249 748 230 729T211 680Z"
         id="glyph122623" /><glyph
         unicode="Ű"
         horiz-adv-x="722"
         d="M648 258Q648 122 575 53T367 -17Q298 -17 244 -1T152 49T94 135T74 258V714H169V258Q169 163 220 113T367 63Q458 63 505 113T553 258V714H648V258ZM485 922H590L470 779H404L485 922ZM329 922H434L314 779H248L329 922Z"
         id="glyph122625" /><glyph
         unicode="ű"
         horiz-adv-x="556"
         d="M492 0H412V82H410Q383 34 341 11T242 -12Q191 -12 157 2T102 41T73 100T64 177V517H149V167Q149 119 177 91T254 63Q293 63 321 75T369 109T397 160T407 225V517H492V0ZM400 732H505L385 589H319L400 732ZM244 732H349L229 589H163L244 732Z"
         id="glyph122627" /><glyph
         unicode="Ų"
         horiz-adv-x="722"
         d="M648 258Q648 122 574 52Q509 -9 397 -16Q384 -28 374 -38Q358 -54 349 -68T336 -95T332 -118Q332 -134 341 -147T370 -160Q393 -160 407 -152T432 -130L464 -148Q444 -183 416 -196T356 -210Q347 -210 332 -209T301 -199T275 -175T264 -128Q264 -121 267 -109T283 -79T317 -40Q330 -28 348 -17Q290 -15 243 -1Q189 15 152 49T94 135T74 258V714H169V258Q169 163 220 113T367 63Q458 63 505 113T553 258V714H648V258Z"
         id="glyph122629" /><glyph
         unicode="ų"
         horiz-adv-x="556"
         d="M452 0Q426 -22 410 -38T385 -68T372 -95T368 -118Q368 -134 377 -147T406 -160Q429 -160 443 -152T468 -130L500 -148Q480 -183 452 -196T392 -210Q383 -210 368 -209T337 -199T311 -175T300 -128Q300 -121 303 -109T319 -79T353 -41T412 0V82H410Q383 34 341 11T242 -12Q191 -12 157 2T102 41T73 100T64 177V517H149V167Q149 119 177 91T254 63Q293 63 321 75T369 109T397 160T407 225V517H492V0H452Z"
         id="glyph122631" /><glyph
         unicode="Ŵ"
         horiz-adv-x="926"
         d="M723 0H624L461 600H459L294 0H195L12 714H109L249 120H251L411 714H514L672 120H674L819 714H914L723 0ZM416 922H509L613 779H529L460 875L390 779H313L416 922Z"
         id="glyph122633" /><glyph
         unicode="ŵ"
         horiz-adv-x="758"
         d="M576 0H486L381 411H379L275 0H183L17 517H111L228 94H230L334 517H427L535 94H537L653 517H741L576 0ZM336 732H429L533 589H449L380 685L310 589H233L336 732Z"
         id="glyph122635" /><glyph
         unicode="Ŷ"
         horiz-adv-x="648"
         d="M373 292V0H278V292L2 714H115L329 374L538 714H646L373 292ZM282 922H375L479 779H395L326 875L256 779H179L282 922Z"
         id="glyph122637" /><glyph
         unicode="ŷ"
         horiz-adv-x="500"
         d="M267 -69Q252 -107 238 -133T206 -175T167 -199T117 -207Q102 -207 87 -205T58 -198V-120Q70 -124 82 -128T108 -132Q134 -132 150 -120T178 -85L213 3L8 517H104L255 94H257L402 517H492L267 -69ZM209 732H302L406 589H322L253 685L183 589H106L209 732Z"
         id="glyph122639" /><glyph
         unicode="Ÿ"
         horiz-adv-x="648"
         d="M373 292V0H278V292L2 714H115L329 374L538 714H646L373 292ZM189 896H279V792H189V896ZM377 896H467V792H377V896Z"
         id="glyph122641" /><glyph
         unicode="Ź"
         horiz-adv-x="611"
         d="M22 80L466 634H56V714H578V634L135 80H590V0H22V80ZM357 922H466L335 779H271L357 922Z"
         id="glyph122643" /><glyph
         unicode="ź"
         horiz-adv-x="480"
         d="M22 65L334 442H42V517H444V459L128 75H458V0H22V65ZM291 732H400L269 589H205L291 732Z"
         id="glyph122645" /><glyph
         unicode="Ż"
         horiz-adv-x="611"
         d="M22 80L466 634H56V714H578V634L135 80H590V0H22V80ZM359 794H269V898H359V794Z"
         id="glyph122647" /><glyph
         unicode="ż"
         horiz-adv-x="480"
         d="M22 65L334 442H42V517H444V459L128 75H458V0H22V65ZM290 604H200V708H290V604Z"
         id="glyph122649" /><glyph
         unicode="Ž"
         horiz-adv-x="611"
         d="M22 80L466 634H56V714H578V634L135 80H590V0H22V80ZM360 779H267L163 922H247L316 826L386 922H463L360 779Z"
         id="glyph122651" /><glyph
         unicode="ž"
         horiz-adv-x="480"
         d="M22 65L334 442H42V517H444V459L128 75H458V0H22V65ZM288 589H195L91 732H175L244 636L314 732H391L288 589Z"
         id="glyph122653" /><glyph
         unicode="ƒ"
         horiz-adv-x="556"
         d="M478 639H419Q392 639 378 626T357 587L326 449H428L414 381H314L259 70Q247 2 232 -43T194 -116T141 -154T69 -165H3L17 -90Q56 -90 80 -87T119 -74T142 -43T156 12L226 381H134L147 449H238L264 585Q275 642 314 678T418 714H492L478 639Z"
         id="glyph122655" /><glyph
         unicode="Ș"
         horiz-adv-x="648"
         d="M491 505Q483 582 436 616T314 651Q284 651 255 645T204 625T168 588T154 529Q154 496 173 476T225 442T299 421T383 402T467 379T540 342T591 284T611 196Q611 139 586 99T520 33T431 -5T332 -17Q272 -17 219 -2T125 44T61 122T37 235H127Q127 190 144 158T190 104T256 73T335 63Q367 63 399 69T458 89T500 129T516 193Q516 230 497 253T445 290T372 314T288 333T204 354T131 388T79 441T59 522Q59 576 81 615T139 680T222 718T318 731Q373 731 420 718T502 677T558 607T581 505H491ZM270 -50H381V-127Q381 -170 354 -190T282 -210V-175Q304 -169 311 -163T320 -151T322 -138H270V-50Z"
         id="glyph122657" /><glyph
         unicode="ș"
         horiz-adv-x="500"
         d="M116 163Q117 134 129 115T160 85T204 68T255 63Q275 63 297 66T337 77T368 100T380 140Q380 165 366 180T328 206T274 222T211 236T149 253T95 279T57 320T42 382Q42 421 59 449T104 494T166 520T235 529Q278 529 315 522T381 496T427 446T447 367H362Q360 392 349 408T321 435T284 449T242 454Q223 454 204 451T168 441T142 420T132 388Q132 365 147 351T187 328T241 312T301 298Q333 291 363 281T417 255T455 213T470 151Q470 105 451 74T400 23T329 -4T250 -12Q206 -12 168 -3T99 27T51 81T31 163H116ZM196 -50H307V-127Q307 -170 280 -190T208 -210V-175Q230 -169 237 -163T246 -151T248 -138H196V-50Z"
         id="glyph122659" /><glyph
         unicode="Ț"
         horiz-adv-x="574"
         d="M240 634H2V714H573V634H335V0H240V634ZM231 -50H342V-127Q342 -170 315 -190T243 -210V-175Q265 -169 272 -163T281 -151T283 -138H231V-50Z"
         id="glyph122661" /><glyph
         unicode="ț"
         horiz-adv-x="315"
         d="M182 517H285V442H182V121Q182 106 184 97T194 83T213 77T246 75H285V0H220Q187 0 164 4T126 21T104 55T97 113V442H9V517H97V672H182V517ZM130 -50H241V-127Q241 -170 214 -190T142 -210V-175Q164 -169 171 -163T180 -151T182 -138H130V-50Z"
         id="glyph122663" /><glyph
         unicode="ˆ"
         horiz-adv-x="222"
         d="M64 732H157L261 589H177L108 685L38 589H-39L64 732Z"
         id="glyph122665" /><glyph
         unicode="ˇ"
         horiz-adv-x="222"
         d="M158 589H65L-39 732H45L114 636L184 732H261L158 589Z"
         id="glyph122667" /><glyph
         unicode="ˉ"
         horiz-adv-x="222"
         d="M-59 682H282V627H-59V682Z"
         id="glyph122669" /><glyph
         unicode="˘"
         horiz-adv-x="222"
         d="M5 729Q29 646 117 646Q160 646 180 668T216 729H267Q256 665 216 628T109 591Q40 591 3 626T-45 729H5Z"
         id="glyph122671" /><glyph
         unicode="˙"
         horiz-adv-x="222"
         d="M156 604H66V708H156V604Z"
         id="glyph122673" /><glyph
         unicode="˚"
         horiz-adv-x="222"
         d="M-2 681Q-2 704 7 724T31 760T67 784T111 793Q134 793 154 785T190 761T215 725T224 681Q224 658 215 638T191 602T155 578T111 569Q88 569 68 577T32 601T7 637T-2 681ZM44 680Q44 651 63 632T111 612Q140 612 159 631T178 680Q178 709 159 728T111 748Q82 748 63 729T44 680Z"
         id="glyph122675" /><glyph
         unicode="˛"
         horiz-adv-x="222"
         d="M228 0Q202 -22 186 -38T161 -68T148 -95T144 -118Q144 -134 153 -147T182 -160Q205 -160 219 -152T244 -130L276 -148Q256 -183 228 -196T168 -210Q159 -210 144 -209T113 -199T87 -175T76 -128Q76 -121 79 -109T95 -79T129 -41T188 0H228Z"
         id="glyph122677" /><glyph
         unicode="˜"
         horiz-adv-x="222"
         d="M285 717Q279 673 253 638Q240 622 224 614T184 606Q163 606 145 612T109 626Q91 633 74 639T43 645Q35 645 27 642T12 634T3 622T-6 603H-58Q-53 627 -45 646T-24 680T6 704T48 713Q68 713 86 707T121 693T154 679T187 673Q205 673 216 685T233 717H285Z"
         id="glyph122679" /><glyph
         unicode="˝"
         horiz-adv-x="222"
         d="M189 732H294L174 589H108L189 732ZM33 732H138L18 589H-48L33 732Z"
         id="glyph122681" /><glyph
         unicode="Δ"
         horiz-adv-x="674"
         d="M333 628L120 72H550L333 628ZM13 0L292 712H375L662 0H13Z"
         id="glyph122683" /><glyph
         unicode="Ω"
         horiz-adv-x="748"
         d="M432 0V183Q519 200 563 261T608 410Q608 462 590 505T540 581T464 631T368 649Q317 649 273 631T196 581T146 505T127 410Q127 368 138 330T172 261T227 211T304 183V0H47V67H240V139Q193 152 158 179T97 242T60 322T47 413Q47 480 72 537T142 634T244 698T368 721Q434 721 492 699T593 636T662 539T688 415Q688 367 676 323T639 243T579 179T496 139V67H688V0H432Z"
         id="glyph122685" /><glyph
         unicode="μ"
         horiz-adv-x="556"
         d="M492 0H412V82H410Q383 34 341 11T242 -12Q210 -12 187 -3T151 26H149V-198H64V517H149V167Q149 119 177 91T254 63Q293 63 321 75T369 109T397 160T407 225V517H492V0Z"
         id="glyph122687" /><glyph
         unicode="π"
         horiz-adv-x="570"
         d="M547 11Q530 3 514 -1T478 -6Q448 -6 431 3T405 29T394 68T392 114V410H146V0H71V410H2V479H543V410H467V111Q467 89 473 74T505 58Q525 58 547 68V11H547Z"
         id="glyph122689" /><glyph
         unicode="–"
         horiz-adv-x="500"
         d="M0 318H500V238H0V318Z"
         id="glyph122691" /><glyph
         unicode="—"
         horiz-adv-x="1000"
         d="M130 318H870V238H130V318Z"
         id="glyph122693" /><glyph
         unicode="‘"
         horiz-adv-x="278"
         d="M195 456H84V567Q84 597 90 623T110 670T144 702T194 714V664Q177 664 166 656T148 633T139 602T136 567H195V456Z"
         id="glyph122695" /><glyph
         unicode="’"
         horiz-adv-x="278"
         d="M83 714H194V603Q194 573 188 547T168 500T134 468T84 456V506Q101 506 112 514T130 537T139 568T142 603H83V714Z"
         id="glyph122697" /><glyph
         unicode="‚"
         horiz-adv-x="278"
         d="M83 111H194V0Q194 -30 188 -56T168 -103T134 -135T84 -147V-97Q101 -97 112 -89T130 -66T139 -35T142 0H83V111Z"
         id="glyph122699" /><glyph
         unicode="“"
         horiz-adv-x="426"
         d="M177 456H66V567Q66 597 72 623T92 670T126 702T176 714V664Q159 664 148 656T130 633T121 602T118 567H177V456ZM360 456H249V567Q249 597 255 623T275 670T309 702T359 714V664Q342 664 331 656T313 633T304 602T301 567H360V456Z"
         id="glyph122701" /><glyph
         unicode="”"
         horiz-adv-x="426"
         d="M66 714H177V603Q177 573 171 547T151 500T117 468T67 456V506Q84 506 95 514T113 537T122 568T125 603H66V714ZM249 714H360V603Q360 573 354 547T334 500T300 468T250 456V506Q267 506 278 514T296 537T305 568T308 603H249V714Z"
         id="glyph122703" /><glyph
         unicode="„"
         horiz-adv-x="426"
         d="M249 111H360V0Q360 -30 354 -56T334 -103T300 -135T250 -147V-97Q267 -97 278 -89T296 -66T305 -35T308 0H249V111ZM66 111H177V0Q177 -30 171 -56T151 -103T117 -135T67 -147V-97Q84 -97 95 -89T113 -66T122 -35T125 0H66V111Z"
         id="glyph122705" /><glyph
         unicode="†"
         horiz-adv-x="556"
         d="M236 442H42V517H236V714H316V517H514V442H316V-155H236V442Z"
         id="glyph122707" /><glyph
         unicode="‡"
         horiz-adv-x="556"
         d="M236 42H42V117H236V442H42V517H236V714H316V517H514V442H316V117H514V42H316V-155H236V42Z"
         id="glyph122709" /><glyph
         unicode="•"
         horiz-adv-x="500"
         d="M72 357Q72 394 86 426T124 483T180 521T250 535Q287 535 319 521T376 483T415 427T429 357Q429 320 415 288T377 231T320 192T250 178Q213 178 181 192T124 230T86 287T72 357Z"
         id="glyph122711" /><glyph
         unicode="…"
         horiz-adv-x="1000"
         d="M777 111H888V0H777V111ZM444 111H555V0H444V111ZM111 111H222V0H111V111Z"
         id="glyph122713" /><glyph
         unicode="‰"
         horiz-adv-x="1148"
         d="M857 158Q857 138 859 118T869 81T891 54T929 43Q951 43 965 54T987 81T998 118T1001 157Q1001 173 999 193T989 232T968 262T933 274Q910 274 896 263T873 235T861 198T857 158ZM782 155Q782 191 790 223T815 278T861 315T930 329Q970 329 997 316T1042 281T1068 227T1076 160Q1076 126 1067 93T1036 33Q1016 8 988 -2T928 -12Q889 -12 862 0T816 35T790 88T782 155ZM512 158Q512 138 514 118T524 81T546 54T584 43Q606 43 620 54T642 81T653 118T656 157Q656 173 654 193T644 232T623 262T588 274Q565 274 551 263T528 235T516 198T512 158ZM437 155Q437 191 445 223T470 278T516 315T585 329Q625 329 652 316T697 281T723 227T731 160Q731 126 722 93T691 33Q671 8 643 -2T583 -12Q544 -12 517 0T471 35T445 88T437 155ZM628 722H713L176 -22H90L628 722ZM147 538Q147 518 149 498T159 461T181 434T219 423Q241 423 255 434T277 461T288 498T291 537Q291 553 289 573T279 612T258 642T223 654Q200 654 186 643T163 615T151 578T147 538ZM72 535Q72 571 80 603T105 658T151 695T220 709Q260 709 287 696T332 661T358 607T366 540Q366 506 357 473T326 413Q306 388 278 378T218 368Q179 368 152 380T106 415T80 468T72 535Z"
         id="glyph122715" /><glyph
         unicode="‹"
         horiz-adv-x="259"
         d="M50 234V322L202 442V356L102 278L202 200V114L50 234Z"
         id="glyph122717" /><glyph
         unicode="›"
         horiz-adv-x="259"
         d="M209 322V234L57 114V200L157 278L57 356V442L209 322Z"
         id="glyph122719" /><glyph
         unicode="⁄"
         horiz-adv-x="167"
         d="M269 725H333L-102 -28H-166L269 725Z"
         id="glyph122721" /><glyph
         unicode="€"
         horiz-adv-x="556"
         d="M512 579Q441 648 369 648Q294 648 245 584Q206 533 189 450H472L445 389H182Q181 381 181 373Q181 365 181 358Q181 352 181 347Q181 342 182 337H431L405 276H187Q220 61 377 61Q425 61 462 80Q489 94 531 133V28Q463 -16 377 -16Q132 -16 90 276H13L40 337H86Q85 342 85 347Q85 352 85 357Q85 366 85 374Q85 382 86 389H13L39 450H93Q117 573 184 644Q259 725 377 725Q468 725 558 662L512 579Z"
         id="glyph122723" /><glyph
         unicode="ℓ"
         horiz-adv-x="500"
         d="M415 41Q356 -14 285 -14Q230 -14 194 17T158 114V228L100 166H98L72 203L158 287V546Q158 588 168 620T195 675T236 709T287 721Q335 721 366 687T397 593Q397 519 354 440T226 275V125Q226 99 233 82T251 56T275 42T301 38Q321 38 343 47T389 76H391L415 41H415ZM340 588Q340 626 325 649T287 673Q264 673 245 645T226 557V335Q282 400 311 465T340 588Z"
         id="glyph122725" /><glyph
         unicode="™"
         horiz-adv-x="990"
         d="M927 302H859V646H857L722 302H679L544 646H542V302H474V714H579L702 401L823 714H927V302ZM390 659H261V302H193V659H64V714H390V659Z"
         id="glyph122727" /><glyph
         unicode="Ω"
         horiz-adv-x="748"
         d="M432 0V183Q519 200 563 261T608 410Q608 462 590 505T540 581T464 631T368 649Q317 649 273 631T196 581T146 505T127 410Q127 368 138 330T172 261T227 211T304 183V0H47V67H240V139Q193 152 158 179T97 242T60 322T47 413Q47 480 72 537T142 634T244 698T368 721Q434 721 492 699T593 636T662 539T688 415Q688 367 676 323T639 243T579 179T496 139V67H688V0H432Z"
         id="glyph122729" /><glyph
         unicode="℮"
         horiz-adv-x="600"
         d="M157 259V78Q216 19 302 19Q365 19 411 47T495 139L530 118Q507 82 484 57T433 15T373 -9T302 -17Q243 -17 196 4T114 63T62 151T44 259Q44 317 62 367T114 455T195 513T302 535Q360 535 407 515T489 458T542 371T561 259H157ZM448 295V440Q385 500 301 500Q217 500 157 440V295H448Z"
         id="glyph122731" /><glyph
         unicode="∂"
         horiz-adv-x="511"
         d="M389 280Q363 315 325 340T241 365Q208 365 183 352T141 318T116 268T107 210Q107 181 115 152T139 100T181 63T239 48Q281 48 309 71T355 130T381 206T389 280ZM469 362Q469 324 466 282T453 197T428 118T385 51T323 5T237 -12Q190 -12 152 6T88 55T47 127T33 213Q33 257 46 296T86 364T148 410T232 427Q279 427 321 407T393 351Q393 362 393 373T394 396Q394 436 386 482T357 567T304 632T221 658Q187 658 160 645T107 611L65 661Q98 690 135 705T218 721Q291 721 339 688T417 602T457 486T469 362Z"
         id="glyph122733" /><glyph
         unicode="∆"
         horiz-adv-x="674"
         d="M333 628L120 72H550L333 628ZM13 0L292 712H375L662 0H13Z"
         id="glyph122735" /><glyph
         unicode="∏"
         horiz-adv-x="719"
         d="M572 -214V714H146V-214H68V786H650V-214H572Z"
         id="glyph122737" /><glyph
         unicode="∑"
         horiz-adv-x="615"
         d="M25 -214V-150L347 290L39 722V786H577V714H140L441 290L122 -142H589V-214H25Z"
         id="glyph122739" /><glyph
         unicode="−"
         horiz-adv-x="600"
         d="M48 287H552V219H48V287Z"
         id="glyph122741" /><glyph
         unicode="∕"
         horiz-adv-x="167"
         d="M269 725H333L-102 -28H-166L269 725Z"
         id="glyph122743" /><glyph
         unicode="∙"
         horiz-adv-x="278"
         d="M75 311Q75 337 94 356T139 375Q165 375 184 356T203 311Q203 287 184 267T140 247Q114 247 95 266T75 311Z"
         id="glyph122745" /><glyph
         unicode="√"
         horiz-adv-x="504"
         d="M303 -214H228L66 120L19 98L-9 158L103 210L254 -107L438 786H514L303 -214Z"
         id="glyph122747" /><glyph
         unicode="∞"
         horiz-adv-x="759"
         d="M337 251Q323 264 306 279T269 308T228 331T187 341Q149 341 128 314T107 252Q107 214 129 190T190 166Q210 166 230 174T270 195T306 222T337 251ZM652 252Q652 290 631 316T570 342Q549 342 529 333T490 310T454 280T423 251Q439 236 455 221T490 194T529 174T573 166Q611 166 631 191T652 252ZM717 255Q717 222 707 194T678 144T632 110T570 98Q541 98 515 107T466 133T421 168T380 207Q359 188 338 169T294 134T245 109T189 99Q156 99 129 110T82 142T53 191T42 252Q42 284 52 312T80 362T126 395T187 408Q217 408 243 398T294 372T339 335T380 294Q400 314 420 334T464 372T513 399T569 410Q603 410 630 398T676 365T706 316T717 255Z"
         id="glyph122749" /><glyph
         unicode="∫"
         horiz-adv-x="554"
         d="M420 730Q420 712 408 702T378 692Q366 692 358 698T344 713T333 728T322 735Q307 735 300 715T292 670T291 623T292 594L293 555V44Q293 9 292 -35T280 -119T242 -186T167 -213Q156 -213 144 -210T121 -201T105 -185T98 -161Q98 -147 109 -136T135 -125Q147 -125 154 -131T167 -146T177 -160T187 -167Q200 -167 206 -145T214 -96T216 -45T215 -16V6V501Q215 525 214 555T215 617T223 679T243 733T280 771T341 786Q354 786 368 783T393 774T412 756T420 730Z"
         id="glyph122751" /><glyph
         unicode="≈"
         horiz-adv-x="593"
         d="M560 234Q557 206 549 180T525 134T486 101T431 89Q399 89 362 100T288 124T218 149T159 161Q127 161 108 137T84 83H32Q36 110 44 136T68 184T106 218T161 231Q194 231 229 220T301 196T371 171T435 160Q469 160 486 182T510 234H560H560ZM561 415Q558 387 550 361T525 314T486 282T431 269Q398 269 362 280T289 304T219 329T160 340Q128 340 109 316T84 263H33Q36 290 45 316T69 364T107 398T162 411Q194 411 230 400T302 376T372 351T436 340Q470 340 487 362T511 415H561H561Z"
         id="glyph122753" /><glyph
         unicode="≠"
         horiz-adv-x="593"
         d="M263 114L187 -32L125 0L184 114H43V186H221L288 313H43V384H326L403 532L465 500L404 384H550V313H367L300 186H550V114H263Z"
         id="glyph122755" /><glyph
         unicode="≤"
         horiz-adv-x="593"
         d="M43 -30V42H550V-30H43ZM43 266V341L550 528V450L142 304L550 159V82L43 266Z"
         id="glyph122757" /><glyph
         unicode="≥"
         horiz-adv-x="593"
         d="M43 -30V42H550V-30H43ZM43 82V159L451 304L43 450V528L550 341V266L43 82Z"
         id="glyph122759" /><glyph
         unicode="◊"
         horiz-adv-x="593"
         d="M296 671L165 356L296 41L428 356L296 671ZM332 -35H260L89 356L260 747H332L504 356L332 -35Z"
         id="glyph122761" /><glyph
         unicode=""
         horiz-adv-x="512"
         d="M222 117V184H278V117H222ZM225 234L223 251Q223 306 236 332T282 391Q314 422 323 438T332 474Q332 510 310 534T256 559Q225 559 203 537T174 464L124 472Q131 543 168 576T259 609Q312 609 347 573T383 478Q383 446 371 420T320 358Q283 325 277 306T271 234H225ZM462 50V667H50V50H462ZM512 718V0H0V718H512Z"
         id="glyph122763" /><glyph
         unicode="ﬁ"
         horiz-adv-x="518"
         d="M365 0V517H450V0H365ZM365 610V714H450V610H365ZM99 442H12V517H99V594Q99 657 135 689T242 722Q254 722 269 720T297 714V640Q286 644 273 645T249 647Q218 647 201 635T184 589V517H284V442H184V0H99V442Z"
         id="glyph122765" /><glyph
         unicode="ﬂ"
         horiz-adv-x="518"
         d="M365 714H450V0H365V714ZM99 442H12V517H99V594Q99 657 135 689T242 722Q254 722 269 720T297 714V640Q286 644 273 645T249 647Q218 647 201 635T184 589V517H284V442H184V0H99V442Z"
         id="glyph122767" /></font>
</defs>
</svg>
